  0
SECTION
  2
HEADER
  9
$ACADVER
  1
AC1018
  9
$ACADMAINTVER
 70
     0
  9
$DWGCODEPAGE
  3
ANSI_1252
  9
$INSBASE
 10
0.0
 20
0.0
 30
0.0
  9
$EXTMIN
 10
-226.8654996473342
 20
-5.12611237589113
 30
0.0
  9
$EXTMAX
 10
70.13450035266385
 20
204.873887624109
 30
0.0
  9
$LIMMIN
 10
0.0
 20
0.0
  9
$LIMMAX
 10
12.0
 20
9.0
  9
$ORTHOMODE
 70
     0
  9
$REGENMODE
 70
     1
  9
$FILLMODE
 70
     1
  9
$QTEXTMODE
 70
     0
  9
$MIRRTEXT
 70
     1
  9
$LTSCALE
 40
1.0
  9
$ATTMODE
 70
     1
  9
$TEXTSIZE
 40
0.2
  9
$TRACEWID
 40
0.05
  9
$TEXTSTYLE
  7
Standard
  9
$CLAYER
  8
0
  9
$CELTYPE
  6
ByLayer
  9
$CECOLOR
 62
   256
  9
$CELTSCALE
 40
1.0
  9
$DISPSILH
 70
     0
  9
$DIMSCALE
 40
1.0
  9
$DIMASZ
 40
0.18
  9
$DIMEXO
 40
0.0625
  9
$DIMDLI
 40
0.38
  9
$DIMRND
 40
0.0
  9
$DIMDLE
 40
0.0
  9
$DIMEXE
 40
0.18
  9
$DIMTP
 40
0.0
  9
$DIMTM
 40
0.0
  9
$DIMTXT
 40
0.18
  9
$DIMCEN
 40
0.09
  9
$DIMTSZ
 40
0.0
  9
$DIMTOL
 70
     0
  9
$DIMLIM
 70
     0
  9
$DIMTIH
 70
     1
  9
$DIMTOH
 70
     1
  9
$DIMSE1
 70
     0
  9
$DIMSE2
 70
     0
  9
$DIMTAD
 70
     0
  9
$DIMZIN
 70
     0
  9
$DIMBLK
  1

  9
$DIMASO
 70
     1
  9
$DIMSHO
 70
     1
  9
$DIMPOST
  1

  9
$DIMAPOST
  1

  9
$DIMALT
 70
     0
  9
$DIMALTD
 70
     2
  9
$DIMALTF
 40
25.4
  9
$DIMLFAC
 40
1.0
  9
$DIMTOFL
 70
     0
  9
$DIMTVP
 40
0.0
  9
$DIMTIX
 70
     0
  9
$DIMSOXD
 70
     0
  9
$DIMSAH
 70
     0
  9
$DIMBLK1
  1

  9
$DIMBLK2
  1

  9
$DIMSTYLE
  2
Standard
  9
$DIMCLRD
 70
     0
  9
$DIMCLRE
 70
     0
  9
$DIMCLRT
 70
     0
  9
$DIMTFAC
 40
1.0
  9
$DIMGAP
 40
0.09
  9
$DIMJUST
 70
     0
  9
$DIMSD1
 70
     0
  9
$DIMSD2
 70
     0
  9
$DIMTOLJ
 70
     1
  9
$DIMTZIN
 70
     0
  9
$DIMALTZ
 70
     0
  9
$DIMALTTZ
 70
     0
  9
$DIMUPT
 70
     0
  9
$DIMDEC
 70
     4
  9
$DIMTDEC
 70
     4
  9
$DIMALTU
 70
     2
  9
$DIMALTTD
 70
     2
  9
$DIMTXSTY
  7
Standard
  9
$DIMAUNIT
 70
     0
  9
$DIMADEC
 70
     0
  9
$DIMALTRND
 40
0.0
  9
$DIMAZIN
 70
     0
  9
$DIMDSEP
 70
    46
  9
$DIMATFIT
 70
     3
  9
$DIMFRAC
 70
     0
  9
$DIMLDRBLK
  1

  9
$DIMLUNIT
 70
     2
  9
$DIMLWD
 70
    -2
  9
$DIMLWE
 70
    -2
  9
$DIMTMOVE
 70
     0
  9
$LUNITS
 70
     2
  9
$LUPREC
 70
     4
  9
$SKETCHINC
 40
0.1
  9
$FILLETRAD
 40
0.5
  9
$AUNITS
 70
     0
  9
$AUPREC
 70
     0
  9
$MENU
  1
.
  9
$ELEVATION
 40
0.0
  9
$PELEVATION
 40
0.0
  9
$THICKNESS
 40
0.0
  9
$LIMCHECK
 70
     0
  9
$CHAMFERA
 40
0.5
  9
$CHAMFERB
 40
0.5
  9
$CHAMFERC
 40
1.0
  9
$CHAMFERD
 40
0.0
  9
$SKPOLY
 70
     0
  9
$TDCREATE
 40
2458226.620570382
  9
$TDUCREATE
 40
2458226.537237049
  9
$TDUPDATE
 40
2458226.620570914
  9
$TDUUPDATE
 40
2458226.537237581
  9
$TDINDWG
 40
0.0000000116
  9
$TDUSRTIMER
 40
0.0000000116
  9
$USRTIMER
 70
     1
  9
$ANGBASE
 50
0.0
  9
$ANGDIR
 70
     0
  9
$PDMODE
 70
     0
  9
$PDSIZE
 40
0.0
  9
$PLINEWID
 40
0.0
  9
$SPLFRAME
 70
     0
  9
$SPLINETYPE
 70
     6
  9
$SPLINESEGS
 70
     8
  9
$HANDSEED
  5
320
  9
$SURFTAB1
 70
     6
  9
$SURFTAB2
 70
     6
  9
$SURFTYPE
 70
     6
  9
$SURFU
 70
     6
  9
$SURFV
 70
     6
  9
$UCSBASE
  2

  9
$UCSNAME
  2

  9
$UCSORG
 10
0.0
 20
0.0
 30
0.0
  9
$UCSXDIR
 10
1.0
 20
0.0
 30
0.0
  9
$UCSYDIR
 10
0.0
 20
1.0
 30
0.0
  9
$UCSORTHOREF
  2

  9
$UCSORTHOVIEW
 70
     0
  9
$UCSORGTOP
 10
0.0
 20
0.0
 30
0.0
  9
$UCSORGBOTTOM
 10
0.0
 20
0.0
 30
0.0
  9
$UCSORGLEFT
 10
0.0
 20
0.0
 30
0.0
  9
$UCSORGRIGHT
 10
0.0
 20
0.0
 30
0.0
  9
$UCSORGFRONT
 10
0.0
 20
0.0
 30
0.0
  9
$UCSORGBACK
 10
0.0
 20
0.0
 30
0.0
  9
$PUCSBASE
  2

  9
$PUCSNAME
  2

  9
$PUCSORG
 10
0.0
 20
0.0
 30
0.0
  9
$PUCSXDIR
 10
1.0
 20
0.0
 30
0.0
  9
$PUCSYDIR
 10
0.0
 20
1.0
 30
0.0
  9
$PUCSORTHOREF
  2

  9
$PUCSORTHOVIEW
 70
     0
  9
$PUCSORGTOP
 10
0.0
 20
0.0
 30
0.0
  9
$PUCSORGBOTTOM
 10
0.0
 20
0.0
 30
0.0
  9
$PUCSORGLEFT
 10
0.0
 20
0.0
 30
0.0
  9
$PUCSORGRIGHT
 10
0.0
 20
0.0
 30
0.0
  9
$PUCSORGFRONT
 10
0.0
 20
0.0
 30
0.0
  9
$PUCSORGBACK
 10
0.0
 20
0.0
 30
0.0
  9
$USERI1
 70
     0
  9
$USERI2
 70
     0
  9
$USERI3
 70
     0
  9
$USERI4
 70
     0
  9
$USERI5
 70
     0
  9
$USERR1
 40
18.1
  9
$USERR2
 40
0.0
  9
$USERR3
 40
0.0
  9
$USERR4
 40
0.0
  9
$USERR5
 40
0.0
  9
$WORLDVIEW
 70
     1
  9
$SHADEDGE
 70
     3
  9
$SHADEDIF
 70
    70
  9
$TILEMODE
 70
     1
  9
$MAXACTVP
 70
    64
  9
$PINSBASE
 10
0.0
 20
0.0
 30
0.0
  9
$PLIMCHECK
 70
     0
  9
$PEXTMIN
 10
1.00000000000000E+20
 20
1.00000000000000E+20
 30
1.00000000000000E+20
  9
$PEXTMAX
 10
-1.00000000000000E+20
 20
-1.00000000000000E+20
 30
-1.00000000000000E+20
  9
$PLIMMIN
 10
0.0
 20
0.0
  9
$PLIMMAX
 10
12.0
 20
9.0
  9
$UNITMODE
 70
     0
  9
$VISRETAIN
 70
     1
  9
$PLINEGEN
 70
     0
  9
$PSLTSCALE
 70
     1
  9
$TREEDEPTH
 70
  3020
  9
$CMLSTYLE
  2
Standard
  9
$CMLJUST
 70
     0
  9
$CMLSCALE
 40
1.0
  9
$PROXYGRAPHICS
 70
     1
  9
$MEASUREMENT
 70
     1
  9
$CELWEIGHT
370
    -1
  9
$ENDCAPS
280
     0
  9
$JOINSTYLE
280
     0
  9
$LWDISPLAY
290
     0
  9
$INSUNITS
 70
     4
  9
$HYPERLINKBASE
  1

  9
$STYLESHEET
  1

  9
$XEDIT
290
     1
  9
$CEPSNTYPE
380
     0
  9
$PSTYLEMODE
290
     1
  9
$FINGERPRINTGUID
  2
{814A5A2E-28BD-477A-9BA7-A96D2E0B4A21}
  9
$VERSIONGUID
  2
{FAEB1C32-E019-11D5-929B-00C0DF256EC4}
  9
$EXTNAMES
290
     1
  9
$PSVPSCALE
 40
0.0
  9
$OLESTARTUP
290
     0
  9
$SORTENTS
280
   127
  9
$INDEXCTL
280
     0
  9
$HIDETEXT
280
     1
  9
$XCLIPFRAME
290
     0
  9
$HALOGAP
280
     0
  9
$OBSCOLOR
 70
   257
  9
$OBSLTYPE
280
     0
  9
$INTERSECTIONDISPLAY
280
     0
  9
$INTERSECTIONCOLOR
 70
   257
  9
$DIMASSOC
280
     2
  9
$PROJECTNAME
  1

  0
ENDSEC
  0
SECTION
  2
CLASSES
  0
CLASS
  1
ACDBDICTIONARYWDFLT
  2
AcDbDictionaryWithDefault
  3
ObjectDBX Classes
 90
        0
 91
        4
280
     0
281
     0
  0
CLASS
  1
VISUALSTYLE
  2
AcDbVisualStyle
  3
ObjectDBX Classes
 90
     4095
 91
        4
280
     0
281
     0
  0
CLASS
  1
MATERIAL
  2
AcDbMaterial
  3
ObjectDBX Classes
 90
     1153
 91
        4
280
     0
281
     0
  0
ENDSEC
  0
SECTION
  2
TABLES
  0
TABLE
  2
VPORT
  5
8
330
0
100
AcDbSymbolTable
 70
     1
  0
VPORT
  5
29
330
8
100
AcDbSymbolTableRecord
100
AcDbViewportTableRecord
  2
*Active
 70
     0
 10
0.0
 20
0.0
 11
1.0
 21
1.0
 12
-78.36549964733517
 22
99.87388762410893
 13
0.0
 23
0.0
 14
0.5
 24
0.5
 15
0.5
 25
0.5
 16
0.0
 26
0.0
 36
1.0
 17
0.0
 27
0.0
 37
0.0
 40
231.0000000000001
 41
1.60267857142857
 42
50.0
 43
0.0
 44
0.0
 50
0.0
 51
0.0
 71
     0
 72
   100
 73
     1
 74
     3
 75
     0
 76
     0
 77
     0
 78
     0
281
     0
 65
     1
110
0.0
120
0.0
130
0.0
111
1.0
121
0.0
131
0.0
112
0.0
122
1.0
132
0.0
 79
     0
146
0.0
  0
ENDTAB
  0
TABLE
  2
LTYPE
  5
5
330
0
100
AcDbSymbolTable
 70
     8
  0
LTYPE
  5
14
330
5
100
AcDbSymbolTableRecord
100
AcDbLinetypeTableRecord
  2
ByBlock
 70
     0
  3

 72
    65
 73
     0
 40
0.0
  0
LTYPE
  5
15
330
5
100
AcDbSymbolTableRecord
100
AcDbLinetypeTableRecord
  2
ByLayer
 70
     0
  3

 72
    65
 73
     0
 40
0.0
  0
LTYPE
  5
16
330
5
100
AcDbSymbolTableRecord
100
AcDbLinetypeTableRecord
  2
Continuous
 70
     0
  3
Solid line
 72
    65
 73
     0
 40
0.0
  0
LTYPE
  5
3F
330
5
100
AcDbSymbolTableRecord
100
AcDbLinetypeTableRecord
  2
DASHED
 70
     0
  3
Dashed
 72
    65
 73
     2
 40
15.0
 49
7.0
 74
     0
 49
-8.0
 74
     0
  0
LTYPE
  5
40
330
5
100
AcDbSymbolTableRecord
100
AcDbLinetypeTableRecord
  2
DOTTED
 70
     0
  3
Dotted
 72
    65
 73
     2
 40
1.0
 49
0.0
 74
     0
 49
-1.0
 74
     0
  0
LTYPE
  5
41
330
5
100
AcDbSymbolTableRecord
100
AcDbLinetypeTableRecord
  2
DOT_CENTER
 70
     0
  3
Dot_Center
 72
    65
 73
     4
 40
14.0
 49
12.0
 74
     0
 49
-1.0
 74
     0
 49
0.0
 74
     0
 49
-1.0
 74
     0
  0
LTYPE
  5
42
330
5
100
AcDbSymbolTableRecord
100
AcDbLinetypeTableRecord
  2
LONG_DASHED
 70
     0
  3
Long_Dashed
 72
    65
 73
     2
 40
15.0
 49
10.0
 74
     0
 49
-5.0
 74
     0
  0
LTYPE
  5
43
330
5
100
AcDbSymbolTableRecord
100
AcDbLinetypeTableRecord
  2
DASH_CENTER
 70
     0
  3
Dash_Center
 72
    65
 73
     4
 40
14.0
 49
11.0
 74
     0
 49
-1.0
 74
     0
 49
1.0
 74
     0
 49
-1.0
 74
     0
  0
LTYPE
  5
44
330
5
100
AcDbSymbolTableRecord
100
AcDbLinetypeTableRecord
  2
PHANTOM
 70
     0
  3
Phantom
 72
    65
 73
     6
 40
13.0
 49
10.0
 74
     0
 49
-1.0
 74
     0
 49
0.0
 74
     0
 49
-1.0
 74
     0
 49
0.0
 74
     0
 49
-1.0
 74
     0
  0
LTYPE
  5
45
330
5
100
AcDbSymbolTableRecord
100
AcDbLinetypeTableRecord
  2
CENTER_DASH_DASH
 70
     0
  3
Center_Dash_Dash
 72
    65
 73
     6
 40
14.0
 49
9.0
 74
     0
 49
-1.0
 74
     0
 49
1.0
 74
     0
 49
-1.0
 74
     0
 49
1.0
 74
     0
 49
-1.0
 74
     0
  0
ENDTAB
  0
TABLE
  2
LAYER
  5
2
330
0
100
AcDbSymbolTable
 70
     2
  0
LAYER
  5
10
330
2
100
AcDbSymbolTableRecord
100
AcDbLayerTableRecord
  2
0
 70
     0
 62
     7
  6
Continuous
370
    -3
390
F
  0
LAYER
  5
46
330
2
100
AcDbSymbolTableRecord
100
AcDbLayerTableRecord
  2
1
 70
     0
 62
     7
  6
Continuous
370
    -3
390
F
  0
ENDTAB
  0
TABLE
  2
STYLE
  5
3
330
0
100
AcDbSymbolTable
 70
     5
  0
STYLE
  5
11
330
3
100
AcDbSymbolTableRecord
100
AcDbTextStyleTableRecord
  2
Standard
 70
     0
 40
0.0
 41
1.0
 50
0.0
 71
     0
 42
0.2
  3
txt
  4

  0
STYLE
  5
DE
330
3
100
AcDbSymbolTableRecord
100
AcDbTextStyleTableRecord
  2
CONVERTER_11
 70
     0
 40
0.0
 41
0.9
 50
0.0
 71
     0
 42
0.2
  3
txt.shx
  4

  0
STYLE
  5
2B6
330
3
100
AcDbSymbolTableRecord
100
AcDbTextStyleTableRecord
  2
CONVERTER_12
 70
     0
 40
0.0
 41
0.81
 50
0.0
 71
     0
 42
0.2
  3
txt.shx
  4

  0
STYLE
  5
2BC
330
3
100
AcDbSymbolTableRecord
100
AcDbTextStyleTableRecord
  2
CONVERTER_13
 70
     0
 40
0.0
 41
0.855
 50
0.0
 71
     0
 42
0.2
  3
txt.shx
  4

  0
STYLE
  5
2BF
330
3
100
AcDbSymbolTableRecord
100
AcDbTextStyleTableRecord
  2
CONVERTER_14
 70
     0
 40
0.0
 41
0.72
 50
0.0
 71
     0
 42
0.2
  3
txt.shx
  4

  0
ENDTAB
  0
TABLE
  2
VIEW
  5
6
330
0
100
AcDbSymbolTable
 70
     0
  0
ENDTAB
  0
TABLE
  2
UCS
  5
7
330
0
100
AcDbSymbolTable
 70
     0
  0
ENDTAB
  0
TABLE
  2
APPID
  5
9
330
0
100
AcDbSymbolTable
 70
     1
  0
APPID
  5
12
330
9
100
AcDbSymbolTableRecord
100
AcDbRegAppTableRecord
  2
ACAD
 70
     0
  0
ENDTAB
  0
TABLE
  2
DIMSTYLE
  5
A
330
0
100
AcDbSymbolTable
 70
     4
100
AcDbDimStyleTable
  0
DIMSTYLE
105
27
330
A
100
AcDbSymbolTableRecord
100
AcDbDimStyleTableRecord
  2
Standard
 70
     0
178
     0
340
11
  0
DIMSTYLE
105
11A
102
{ACAD_REACTORS
330
11B
102
}
330
A
100
AcDbSymbolTableRecord
100
AcDbDimStyleTableRecord
  2
ME10_DIM_10
 70
     0
 41
3.5
 42
0.0
 44
1.5
 73
     0
 74
     0
 77
     1
 78
     8
140
3.5
147
1.5
172
     1
173
     1
174
     1
175
     1
176
     2
177
     2
271
     2
178
     3
271
     2
340
DE
  0
DIMSTYLE
105
1B2
102
{ACAD_REACTORS
330
1B3
102
}
330
A
100
AcDbSymbolTableRecord
100
AcDbDimStyleTableRecord
  2
ME10_DIM_11
 70
     0
 41
3.5
 42
0.0
 44
2.0
 73
     0
 74
     0
 77
     1
 78
     8
140
3.5
147
2.0
172
     1
173
     1
174
     1
175
     1
176
     2
177
     2
178
     3
340
DE
  0
DIMSTYLE
105
1BD
102
{ACAD_REACTORS
330
1BE
102
}
330
A
100
AcDbSymbolTableRecord
100
AcDbDimStyleTableRecord
  2
ME10_DIM_12
 70
     0
 41
3.5
 42
0.0
 44
1.5
 73
     0
 74
     0
 77
     1
 78
     8
140
3.5
147
1.5
172
     1
173
     1
174
     1
175
     1
176
     2
177
     2
271
     1
178
     3
271
     1
340
DE
  0
ENDTAB
  0
TABLE
  2
BLOCK_RECORD
  5
1
330
0
100
AcDbSymbolTable
 70
    20
  0
BLOCK_RECORD
  5
1F
330
1
100
AcDbSymbolTableRecord
100
AcDbBlockTableRecord
  2
*Model_Space
340
22
  0
BLOCK_RECORD
  5
1B
330
1
100
AcDbSymbolTableRecord
100
AcDbBlockTableRecord
  2
*Paper_Space
340
1E
  0
BLOCK_RECORD
  5
23
330
1
100
AcDbSymbolTableRecord
100
AcDbBlockTableRecord
  2
*Paper_Space0
340
26
  0
BLOCK_RECORD
  5
47
330
1
100
AcDbSymbolTableRecord
100
AcDbBlockTableRecord
  2
D_ST_2_5_QUATTRO_0_8_OG-select__1
340
0
102
{BLKREFS
331
4B
102
}
  0
BLOCK_RECORD
  5
4A
330
1
100
AcDbSymbolTableRecord
100
AcDbBlockTableRecord
  2
Allg1
340
0
102
{BLKREFS
331
7D
102
}
  0
BLOCK_RECORD
  5
4E
330
1
100
AcDbSymbolTableRecord
100
AcDbBlockTableRecord
  2
D_ST_2_5_QUATTRO_0_8_OG-select__2
340
0
102
{BLKREFS
331
52
102
}
  0
BLOCK_RECORD
  5
51
330
1
100
AcDbSymbolTableRecord
100
AcDbBlockTableRecord
  2
Drfsicht1
340
0
102
{BLKREFS
331
7E
102
}
  0
BLOCK_RECORD
  5
55
330
1
100
AcDbSymbolTableRecord
100
AcDbBlockTableRecord
  2
D_ST_2_5_QUATTRO_0_8_OG-select__3
340
0
102
{BLKREFS
331
59
102
}
  0
BLOCK_RECORD
  5
58
330
1
100
AcDbSymbolTableRecord
100
AcDbBlockTableRecord
  2
Rckans1
340
0
102
{BLKREFS
331
7F
102
}
  0
BLOCK_RECORD
  5
5C
330
1
100
AcDbSymbolTableRecord
100
AcDbBlockTableRecord
  2
D_ST_2_5_QUATTRO_0_8_OG-select__4
340
0
102
{BLKREFS
331
60
102
}
  0
BLOCK_RECORD
  5
5F
330
1
100
AcDbSymbolTableRecord
100
AcDbBlockTableRecord
  2
SA_Links1
340
0
102
{BLKREFS
331
80
102
}
  0
BLOCK_RECORD
  5
63
330
1
100
AcDbSymbolTableRecord
100
AcDbBlockTableRecord
  2
D_ST_2_5_QUATTRO_0_8_OG-select__5
340
0
102
{BLKREFS
331
67
102
}
  0
BLOCK_RECORD
  5
66
330
1
100
AcDbSymbolTableRecord
100
AcDbBlockTableRecord
  2
SA_Rechts1
340
0
102
{BLKREFS
331
81
102
}
  0
BLOCK_RECORD
  5
6A
330
1
100
AcDbSymbolTableRecord
100
AcDbBlockTableRecord
  2
D_ST_2_5_QUATTRO_0_8_OG-select__6
340
0
102
{BLKREFS
331
6E
102
}
  0
BLOCK_RECORD
  5
6D
330
1
100
AcDbSymbolTableRecord
100
AcDbBlockTableRecord
  2
Vordans1
340
0
102
{BLKREFS
331
82
102
}
  0
BLOCK_RECORD
  5
71
330
1
100
AcDbSymbolTableRecord
100
AcDbBlockTableRecord
  2
_rahmen
340
0
102
{BLKREFS
331
78
102
}
  0
BLOCK_RECORD
  5
74
330
1
100
AcDbSymbolTableRecord
100
AcDbBlockTableRecord
  2
_punkt
340
0
102
{BLKREFS
331
79
102
}
  0
BLOCK_RECORD
  5
77
330
1
100
AcDbSymbolTableRecord
100
AcDbBlockTableRecord
  2
A4I_CS
340
0
102
{BLKREFS
331
83
102
}
  0
BLOCK_RECORD
  5
7C
330
1
100
AcDbSymbolTableRecord
100
AcDbBlockTableRecord
  2
1
340
0
102
{BLKREFS
331
86
102
}
  0
BLOCK_RECORD
  5
10F
330
1
100
AcDbSymbolTableRecord
100
AcDbBlockTableRecord
  2
*D17
340
0
  0
BLOCK_RECORD
  5
1A9
330
1
100
AcDbSymbolTableRecord
100
AcDbBlockTableRecord
  2
*D18
340
0
  0
BLOCK_RECORD
  5
1B4
330
1
100
AcDbSymbolTableRecord
100
AcDbBlockTableRecord
  2
*D19
340
0
  0
ENDTAB
  0
ENDSEC
  0
SECTION
  2
BLOCKS
  0
BLOCK
  5
20
330
1F
100
AcDbEntity
  8
0
100
AcDbBlockBegin
  2
*Model_Space
 70
     0
 10
0.0
 20
0.0
 30
0.0
  3
*Model_Space
  1

  0
ENDBLK
  5
21
330
1F
100
AcDbEntity
  8
0
100
AcDbBlockEnd
  0
BLOCK
  5
1C
330
1B
100
AcDbEntity
 67
     1
  8
0
100
AcDbBlockBegin
  2
*Paper_Space
 70
     0
 10
0.0
 20
0.0
 30
0.0
  3
*Paper_Space
  1

  0
ENDBLK
  5
1D
330
1B
100
AcDbEntity
 67
     1
  8
0
100
AcDbBlockEnd
  0
BLOCK
  5
24
330
23
100
AcDbEntity
  8
0
100
AcDbBlockBegin
  2
*Paper_Space0
 70
     0
 10
0.0
 20
0.0
 30
0.0
  3
*Paper_Space0
  1

  0
ENDBLK
  5
25
330
23
100
AcDbEntity
  8
0
100
AcDbBlockEnd
  0
BLOCK
  5
48
330
47
100
AcDbEntity
  8
0
100
AcDbBlockBegin
  2
D_ST_2_5_QUATTRO_0_8_OG-select__1
 70
     0
 10
-25.46351767639509
 20
52.57459842682349
 30
0.0
  3
D_ST_2_5_QUATTRO_0_8_OG-select__1
  1

  0
LINE
  5
87
330
47
100
AcDbEntity
  8
0
  6
Continuous
 62
     7
100
AcDbLine
 10
12.8364558060801
 20
80.60328237461304
 30
0.0
 11
12.83645580608021
 21
81.51260904858641
 31
0.0
  0
LINE
  5
88
330
47
100
AcDbEntity
  8
0
  6
Continuous
 62
     7
100
AcDbLine
 10
12.30917817619081
 20
81.66482098936362
 30
0.0
 11
12.70917817619082
 21
82.01123115087744
 31
0.0
  0
LINE
  5
89
330
47
100
AcDbEntity
  8
0
  6
Continuous
 62
     7
100
AcDbLine
 10
7.3371944920487
 20
82.19078237461406
 30
0.0
 11
7.7371944920487
 21
82.53719253612786
 31
0.0
  0
LINE
  5
8A
330
47
100
AcDbEntity
  8
0
  6
Continuous
 62
     7
100
AcDbLine
 10
13.315395958869
 20
82.44244893354694
 30
0.0
 11
12.70917817619082
 21
82.01123115087744
 31
0.0
  0
LINE
  5
8B
330
47
100
AcDbEntity
  8
0
  6
Continuous
 62
     7
100
AcDbLine
 10
12.30917817619081
 20
81.66482098936362
 30
0.0
 11
12.915395958869
 21
82.09603877203313
 31
0.0
  0
LINE
  5
8C
330
47
100
AcDbEntity
  8
0
  6
Continuous
 62
     7
100
AcDbLine
 10
12.30917817619081
 20
81.66482098936362
 30
0.0
 11
12.83645580608021
 21
81.51260904858641
 31
0.0
  0
LINE
  5
8D
330
47
100
AcDbEntity
  8
0
  6
Continuous
 62
     7
100
AcDbLine
 10
7.3371944920487
 20
82.19078237461406
 30
0.0
 11
12.8364558060801
 21
80.60328237461304
 31
0.0
  0
LINE
  5
8E
330
47
100
AcDbEntity
  8
0
  6
Continuous
 62
     7
100
AcDbLine
 10
12.8364558060801
 20
81.06516258996481
 30
0.0
 11
7.7371944920487
 21
82.53719253612786
 31
0.0
  0
LINE
  5
8F
330
47
100
AcDbEntity
  8
0
  6
Continuous
 62
     7
100
AcDbLine
 10
7.25825433929759
 20
83.72911489044847
 30
0.0
 11
7.86447212193812
 21
82.94789710781029
 31
0.0
  0
LINE
  5
90
330
47
100
AcDbEntity
  8
0
  6
Continuous
 62
     7
100
AcDbLine
 10
8.2644721219381
 20
83.29430726932411
 30
0.0
 11
7.6582543392976
 21
84.07552505196227
 31
0.0
  0
LINE
  5
91
330
47
100
AcDbEntity
  8
0
  6
Continuous
 62
     7
100
AcDbLine
 10
32.38066513985712
 20
52.57459842682349
 30
0.0
 11
1.72968000246331
 21
61.42277568682786
 31
0.0
  0
LINE
  5
92
330
47
100
AcDbEntity
  8
0
  6
Continuous
 62
     7
100
AcDbLine
 10
7.7371944920487
 20
82.53719253612786
 30
0.0
 11
7.73719449204881
 21
82.98463899474955
 31
0.0
  0
LINE
  5
93
330
47
100
AcDbEntity
  8
0
  6
Continuous
 62
     7
100
AcDbLine
 10
7.86447212193812
 20
82.94789710781029
 30
0.0
 11
7.33719449204889
 21
83.10010904858747
 31
0.0
  0
LINE
  5
94
330
47
100
AcDbEntity
  8
0
  6
Continuous
 62
     7
100
AcDbLine
 10
7.3371944920487
 20
82.19078237461406
 30
0.0
 11
7.33719449204889
 21
83.10010904858747
 31
0.0
  0
LINE
  5
95
330
47
100
AcDbEntity
  8
0
  6
Continuous
 62
     7
100
AcDbLine
 10
8.2644721219381
 20
83.29430726932411
 30
0.0
 11
7.86447212193812
 21
82.94789710781029
 31
0.0
  0
LINE
  5
96
330
47
100
AcDbEntity
  8
0
  6
Continuous
 62
     7
100
AcDbLine
 10
0.8636545986509
 20
62.53880109064853
 30
0.0
 11
1.72968000246331
 21
61.42277568682786
 31
0.0
  0
LINE
  5
97
330
47
100
AcDbEntity
  8
0
  6
Continuous
 62
     7
100
AcDbLine
 10
-0.43538350702579
 20
62.91380109064869
 30
0.0
 11
0.8636545986509
 21
62.53880109064853
 31
0.0
  0
LINE
  5
98
330
47
100
AcDbEntity
  8
0
  6
Continuous
 62
     7
100
AcDbLine
 10
7.25825433929759
 20
83.72911489044847
 30
0.0
 11
7.6582543392976
 21
84.07552505196227
 31
0.0
  0
LINE
  5
99
330
47
100
AcDbEntity
  8
0
  6
Continuous
 62
     7
100
AcDbLine
 10
5.84330067053619
 20
84.13757683122377
 30
0.0
 11
7.25825433929759
 21
83.72911489044847
 31
0.0
  0
LINE
  5
9A
330
47
100
AcDbEntity
  8
0
  6
Continuous
 62
     7
100
AcDbLine
 10
-1.30140891083849
 20
62.29777568684445
 30
0.0
 11
-0.43538350702579
 21
62.91380109064869
 31
0.0
  0
LINE
  5
9B
330
47
100
AcDbEntity
  8
0
  6
Continuous
 62
     7
100
AcDbLine
 10
-24.5212439262736
 20
93.33092641144597
 30
0.0
 11
-24.11524037142019
 21
92.87304584746943
 31
0.0
  0
LINE
  5
9C
330
47
100
AcDbEntity
  8
0
  6
Continuous
 62
     7
100
AcDbLine
 10
-24.37526700606369
 20
94.11666275802361
 30
0.0
 11
-24.5212439262736
 21
93.33092641144597
 31
0.0
  0
LINE
  5
9D
330
47
100
AcDbEntity
  8
0
  6
Continuous
 62
     7
100
AcDbLine
 10
-23.9329301071618
 20
93.03093116768787
 30
0.0
 11
-24.11524037142019
 21
92.87304584746943
 31
0.0
  0
LINE
  5
9E
330
47
100
AcDbEntity
  8
0
  6
Continuous
 62
     7
100
AcDbLine
 10
-24.11524037142019
 20
92.87304584746943
 30
0.0
 11
-24.07374307106629
 21
93.09640949376555
 31
0.0
  0
LINE
  5
9F
330
47
100
AcDbEntity
  8
0
  6
Continuous
 62
     7
100
AcDbLine
 10
-23.16654359125579
 20
92.67455981665167
 30
0.0
 11
-24.07374307106629
 21
93.09640949376555
 31
0.0
  0
LINE
  5
A0
330
47
100
AcDbEntity
  8
0
  6
Continuous
 62
     7
100
AcDbLine
 10
-24.37526700606369
 20
94.11666275802361
 30
0.0
 11
-23.97526700606559
 21
94.46307291953795
 31
0.0
  0
LINE
  5
A1
330
47
100
AcDbEntity
  8
0
  6
Continuous
 62
     7
100
AcDbLine
 10
6.33114312618321
 20
85.71436589552552
 30
0.0
 11
5.93114312618331
 21
85.3679557340117
 31
0.0
  0
LINE
  5
A2
330
47
100
AcDbEntity
  8
0
  6
Continuous
 62
     7
100
AcDbLine
 10
-24.37526700606369
 20
94.11666275802361
 30
0.0
 11
5.93114312618331
 21
85.3679557340117
 31
0.0
  0
LINE
  5
A3
330
47
100
AcDbEntity
  8
0
  6
Continuous
 62
     7
100
AcDbLine
 10
-24.11755374855569
 20
87.55564618645568
 30
0.0
 11
-23.16654359125579
 21
92.67455981665167
 31
0.0
  0
LINE
  5
A4
330
47
100
AcDbEntity
  8
0
  6
Continuous
 62
     7
100
AcDbLine
 10
14.33034962759299
 20
81.68757683126863
 30
0.0
 11
14.330349627597
 21
82.38039715433106
 31
0.0
  0
LINE
  5
A5
330
47
100
AcDbEntity
  8
0
  6
Continuous
 62
     7
100
AcDbLine
 10
13.84834878658481
 20
82.51953881198511
 30
0.0
 11
14.330349627597
 21
82.38039715433106
 31
0.0
  0
LINE
  5
A6
330
47
100
AcDbEntity
  8
0
  6
Continuous
 62
     7
100
AcDbLine
 10
14.24250717195289
 20
82.96867159944122
 30
0.0
 11
13.84834878658481
 21
82.51953881198511
 31
0.0
  0
LINE
  5
A7
330
47
100
AcDbEntity
  8
0
  6
Continuous
 62
     7
100
AcDbLine
 10
14.64250717195282
 20
83.31508176095504
 30
0.0
 11
14.24250717195289
 21
82.96867159944122
 31
0.0
  0
LINE
  5
A8
330
47
100
AcDbEntity
  8
0
  6
Continuous
 62
     7
100
AcDbLine
 10
12.915395958869
 20
82.09603877203313
 30
0.0
 11
13.315395958869
 21
82.44244893354694
 31
0.0
  0
LINE
  5
A9
330
47
100
AcDbEntity
  8
0
  6
Continuous
 62
     7
100
AcDbLine
 10
14.3303496275957
 20
82.14945704661964
 30
0.0
 11
13.315395958869
 21
82.44244893354694
 31
0.0
  0
LINE
  5
AA
330
47
100
AcDbEntity
  8
0
  6
Continuous
 62
     7
100
AcDbLine
 10
36.3808026109655
 20
77.03977639923369
 30
0.0
 11
14.64250717195282
 21
83.31508176095504
 31
0.0
  0
LINE
  5
AB
330
47
100
AcDbEntity
  8
0
  6
Continuous
 62
     7
100
AcDbLine
 10
12.915395958869
 20
82.09603877203313
 30
0.0
 11
14.33034962759299
 21
81.68757683126863
 31
0.0
  0
LINE
  5
AC
330
47
100
AcDbEntity
  8
0
  6
Continuous
 62
     7
100
AcDbLine
 10
14.24250717195289
 20
82.96867159944122
 30
0.0
 11
35.9808026109674
 21
76.69336623771936
 31
0.0
  0
LINE
  5
AD
330
47
100
AcDbEntity
  8
0
  6
Continuous
 62
     7
100
AcDbLine
 10
35.72006235754162
 20
75.60412891188469
 30
0.0
 11
35.67911172090211
 21
75.8481929435051
 31
0.0
  0
LINE
  5
AE
330
47
100
AcDbEntity
  8
0
  6
Continuous
 62
     7
100
AcDbLine
 10
34.7665423917127
 20
75.95071842293305
 30
0.0
 11
35.71771950407941
 21
70.28174377739784
 31
0.0
  0
LINE
  5
AF
330
47
100
AcDbEntity
  8
0
  6
Continuous
 62
     7
100
AcDbLine
 10
35.23346708461591
 20
75.89826029568133
 30
0.0
 11
36.11771950407942
 21
70.62815393891165
 31
0.0
  0
LINE
  5
B0
330
47
100
AcDbEntity
  8
0
  6
Continuous
 62
     7
100
AcDbLine
 10
34.7665423917127
 20
75.95071842293305
 30
0.0
 11
35.67911172090211
 21
75.8481929435051
 31
0.0
  0
LINE
  5
B1
330
47
100
AcDbEntity
  8
0
  6
Continuous
 62
     7
100
AcDbLine
 10
37.06351647684662
 20
53.82085189817568
 30
0.0
 11
32.38066513985712
 21
52.57459842682349
 31
0.0
  0
LINE
  5
B2
330
47
100
AcDbEntity
  8
0
  6
Continuous
 62
     7
100
AcDbLine
 10
36.98933819662821
 20
70.76969249110259
 30
0.0
 11
37.46351647684841
 21
70.46022223250627
 31
0.0
  0
LINE
  5
B3
330
47
100
AcDbEntity
  8
0
  6
Continuous
 62
     7
100
AcDbLine
 10
37.46351647684841
 20
70.46022223250627
 30
0.0
 11
37.06351647684841
 21
70.11381207099247
 31
0.0
  0
LINE
  5
B4
330
47
100
AcDbEntity
  8
0
  6
Continuous
 62
     7
100
AcDbLine
 10
37.4635164768641
 20
66.29161771268873
 30
0.0
 11
37.46351647684841
 21
70.46022223250627
 31
0.0
  0
LINE
  5
B5
330
47
100
AcDbEntity
  8
0
  6
Continuous
 62
     7
100
AcDbLine
 10
37.4635164768641
 20
66.29161771268873
 30
0.0
 11
37.0635164768641
 21
65.94520755117492
 31
0.0
  0
LINE
  5
B6
330
47
100
AcDbEntity
  8
0
  6
Continuous
 62
     7
100
AcDbLine
 10
36.12606591239671
 20
75.82760321417545
 30
0.0
 11
35.72006235754162
 21
75.60412891188469
 31
0.0
  0
LINE
  5
B7
330
47
100
AcDbEntity
  8
0
  6
Continuous
 62
     7
100
AcDbLine
 10
36.58933819662832
 20
70.42328232958879
 30
0.0
 11
36.98933819662821
 21
70.76969249110259
 31
0.0
  0
LINE
  5
B8
330
47
100
AcDbEntity
  8
0
  6
Continuous
 62
     7
100
AcDbLine
 10
36.52606591239501
 20
76.17401337568836
 30
0.0
 11
36.3808026109655
 21
77.03977639923369
 31
0.0
  0
LINE
  5
B9
330
47
100
AcDbEntity
  8
0
  6
Continuous
 62
     7
100
AcDbLine
 10
36.12606591239671
 20
75.82760321417545
 30
0.0
 11
36.52606591239501
 21
76.17401337568836
 31
0.0
  0
LINE
  5
BA
330
47
100
AcDbEntity
  8
0
  6
Continuous
 62
     7
100
AcDbLine
 10
35.9808026109674
 20
76.69336623771936
 30
0.0
 11
36.12606591239671
 21
75.82760321417545
 31
0.0
  0
LINE
  5
BB
330
47
100
AcDbEntity
  8
0
  6
Continuous
 62
     7
100
AcDbLine
 10
36.3808026109655
 20
77.03977639923369
 30
0.0
 11
35.9808026109674
 21
76.69336623771936
 31
0.0
  0
LINE
  5
BC
330
47
100
AcDbEntity
  8
0
  6
Continuous
 62
     7
100
AcDbLine
 10
36.58933819662832
 20
70.42328232958879
 30
0.0
 11
36.6302888332678
 21
70.17921829797031
 31
0.0
  0
LINE
  5
BD
330
47
100
AcDbEntity
  8
0
  6
Continuous
 62
     7
100
AcDbLine
 10
36.74458168077791
 20
70.55772713063443
 30
0.0
 11
36.11771950407942
 21
70.62815393891165
 31
0.0
  0
LINE
  5
BE
330
47
100
AcDbEntity
  8
0
  6
Continuous
 62
     7
100
AcDbLine
 10
37.0635164768641
 20
65.94520755117492
 30
0.0
 11
37.06351647684841
 21
70.11381207099247
 31
0.0
  0
LINE
  5
BF
330
47
100
AcDbEntity
  8
0
  6
Continuous
 62
     7
100
AcDbLine
 10
37.0635164768577
 20
55.55290270577514
 30
0.0
 11
37.06351647684662
 21
53.82085189817568
 31
0.0
  0
LINE
  5
C0
330
47
100
AcDbEntity
  8
0
  6
Continuous
 62
     7
100
AcDbLine
 10
37.46351647684472
 20
54.16726205968899
 30
0.0
 11
37.06351647684662
 21
53.82085189817568
 31
0.0
  0
LINE
  5
C1
330
47
100
AcDbEntity
  8
0
  6
Continuous
 62
     7
100
AcDbLine
 10
37.46351647685762
 20
55.89931286728893
 30
0.0
 11
37.46351647684472
 21
54.16726205968899
 31
0.0
  0
LINE
  5
C2
330
47
100
AcDbEntity
  8
0
  6
Continuous
 62
     7
100
AcDbLine
 10
37.46351647685762
 20
55.89931286728893
 30
0.0
 11
37.0635164768577
 21
55.55290270577514
 31
0.0
  0
LINE
  5
C3
330
47
100
AcDbEntity
  8
0
  6
Continuous
 62
     7
100
AcDbLine
 10
35.71771950407941
 20
70.28174377739784
 30
0.0
 11
36.6302888332678
 21
70.17921829797031
 31
0.0
  0
LINE
  5
C4
330
47
100
AcDbEntity
  8
0
  6
Continuous
 62
     7
100
AcDbLine
 10
35.71771950407941
 20
70.28174377739784
 30
0.0
 11
36.11771950407942
 21
70.62815393891165
 31
0.0
  0
LINE
  5
C5
330
47
100
AcDbEntity
  8
0
  6
Continuous
 62
     7
100
AcDbLine
 10
36.58933819662832
 20
70.42328232958879
 30
0.0
 11
37.06351647684841
 21
70.11381207099247
 31
0.0
  0
LINE
  5
C6
330
47
100
AcDbEntity
  8
0
  6
Continuous
 62
     7
100
AcDbLine
 10
5.84330067053619
 20
84.13757683122377
 30
0.0
 11
6.2433006705362
 21
84.48398699273757
 31
0.0
  0
LINE
  5
C7
330
47
100
AcDbEntity
  8
0
  6
Continuous
 62
     7
100
AcDbLine
 10
-24.0265061039858
 20
88.04571984677189
 30
0.0
 11
-24.62475322836529
 21
88.32390602508265
 31
0.0
  0
LINE
  5
C8
330
47
100
AcDbEntity
  8
0
  6
Continuous
 62
     7
100
AcDbLine
 10
-25.0247532283652
 20
87.97749586356944
 30
0.0
 11
-24.62475322836529
 21
88.32390602508265
 31
0.0
  0
LINE
  5
C9
330
47
100
AcDbEntity
  8
0
  6
Continuous
 62
     7
100
AcDbLine
 10
-24.58342288307959
 20
88.5463710179107
 30
0.0
 11
-25.0635176763914
 21
88.51022223260058
 31
0.0
  0
LINE
  5
CA
330
47
100
AcDbEntity
  8
0
  6
Continuous
 62
     7
100
AcDbLine
 10
-25.0635176763914
 20
88.51022223260058
 30
0.0
 11
-25.46351767638949
 21
88.16381207108692
 31
0.0
  0
LINE
  5
CB
330
47
100
AcDbEntity
  8
0
  6
Continuous
 62
     7
100
AcDbLine
 10
-25.46351767638949
 20
88.16381207108692
 30
0.0
 11
-24.9834228830796
 21
88.1999608563969
 31
0.0
  0
LINE
  5
CC
330
47
100
AcDbEntity
  8
0
  6
Continuous
 62
     7
100
AcDbLine
 10
-24.9834228830796
 20
88.1999608563969
 30
0.0
 11
-24.58342288307959
 21
88.5463710179107
 31
0.0
  0
LINE
  5
CD
330
47
100
AcDbEntity
  8
0
  6
Continuous
 62
     7
100
AcDbLine
 10
-24.62475322836529
 20
88.32390602508265
 30
0.0
 11
-24.58342288307959
 21
88.5463710179107
 31
0.0
  0
LINE
  5
CE
330
47
100
AcDbEntity
  8
0
  6
Continuous
 62
     7
100
AcDbLine
 10
-24.9834228830796
 20
88.1999608563969
 30
0.0
 11
-25.0247532283652
 21
87.97749586356944
 31
0.0
  0
LINE
  5
CF
330
47
100
AcDbEntity
  8
0
  6
Continuous
 62
     7
100
AcDbLine
 10
-25.46351767639509
 20
83.99520755117764
 30
0.0
 11
-25.46351767638949
 21
88.16381207108692
 31
0.0
  0
LINE
  5
D0
330
47
100
AcDbEntity
  8
0
  6
Continuous
 62
     7
100
AcDbLine
 10
-25.46351767639209
 20
69.272775686838
 30
0.0
 11
-25.46351767639199
 21
76.20097891710115
 31
0.0
  0
LINE
  5
D1
330
47
100
AcDbEntity
  8
0
  6
Continuous
 62
     7
100
AcDbLine
 10
-1.30140891083849
 20
62.29777568684445
 30
0.0
 11
-25.46351767639209
 21
69.272775686838
 31
0.0
  0
LINE
  5
D2
330
47
100
AcDbEntity
  8
0
  6
Continuous
 62
     7
100
AcDbLine
 10
5.84330067053241
 20
84.83039715432544
 30
0.0
 11
6.3253015115445
 21
84.69125549667143
 31
0.0
  0
LINE
  5
D3
330
47
100
AcDbEntity
  8
0
  6
Continuous
 62
     7
100
AcDbLine
 10
6.7253015115445
 20
85.03766565818523
 30
0.0
 11
6.33114312618321
 21
85.71436589552552
 31
0.0
  0
LINE
  5
D4
330
47
100
AcDbEntity
  8
0
  6
Continuous
 62
     7
100
AcDbLine
 10
6.7253015115445
 20
85.03766565818523
 30
0.0
 11
6.3253015115445
 21
84.69125549667143
 31
0.0
  0
LINE
  5
D5
330
47
100
AcDbEntity
  8
0
  6
Continuous
 62
     7
100
AcDbLine
 10
6.2433006705362
 20
84.48398699273757
 30
0.0
 11
6.24330067053492
 21
84.71492710048676
 31
0.0
  0
LINE
  5
D6
330
47
100
AcDbEntity
  8
0
  6
Continuous
 62
     7
100
AcDbLine
 10
6.3253015115445
 20
84.69125549667143
 30
0.0
 11
5.93114312618331
 21
85.3679557340117
 31
0.0
  0
LINE
  5
D7
330
47
100
AcDbEntity
  8
0
  6
Continuous
 62
     7
100
AcDbLine
 10
5.84330067053241
 20
84.83039715432544
 30
0.0
 11
5.84330067053619
 21
84.13757683122377
 31
0.0
  0
LINE
  5
D8
330
47
100
AcDbEntity
  8
0
  6
Continuous
 62
     7
100
AcDbLine
 10
7.6582543392976
 20
84.07552505196227
 30
0.0
 11
6.2433006705362
 21
84.48398699273757
 31
0.0
  0
LINE
  5
D9
330
47
100
AcDbEntity
  8
0
  6
Continuous
 62
     7
100
AcDbLine
 10
-24.11755374855569
 20
87.55564618645568
 30
0.0
 11
-25.0247532283652
 21
87.97749586356944
 31
0.0
  0
LINE
  5
DA
330
47
100
AcDbEntity
  8
0
  6
Continuous
 62
     7
100
AcDbLine
 10
-23.97526700606559
 20
94.46307291953795
 30
0.0
 11
6.33114312618321
 21
85.71436589552552
 31
0.0
  0
SPLINE
  5
DB
330
47
100
AcDbEntity
  8
0
  6
Continuous
 62
     7
100
AcDbSpline
210
0.0
220
0.0
230
1.0
 70
     8
 71
     3
 72
    13
 73
     9
 74
     7
 42
0.000000001
 43
0.0000000001
 44
0.00000001
 40
0.0
 40
0.0
 40
0.0
 40
0.0
 40
1.618800875632745
 40
3.296662960630452
 40
5.042045806812675
 40
6.857713221226799
 40
8.7411575145359
 40
10.685315822055
 40
10.685315822055
 40
10.685315822055
 40
10.685315822055
 10
37.0635164768641
 20
65.94520755117492
 30
0.0
 10
36.84660978984253
 20
65.44978684901896
 30
0.0
 10
36.40488268819779
 20
64.44087024163089
 30
0.0
 10
36.0592607823809
 20
62.78515471940068
 30
0.0
 10
35.93680853708006
 20
61.03872542827585
 30
0.0
 10
36.06772146431578
 20
59.22356042733655
 30
0.0
 10
36.42471269680081
 20
57.37001207174977
 30
0.0
 10
36.8483419881126
 20
56.16497730779252
 30
0.0
 10
37.0635164768577
 20
55.55290270577514
 30
0.0
 11
37.0635164768641
 21
65.94520755117492
 31
0.0
 11
36.46481802625172
 21
64.4411874563124
 31
0.0
 11
36.10103983554284
 21
62.8032354998422
 31
0.0
 11
35.97901639149921
 21
61.06212333658556
 31
0.0
 11
36.10103983554066
 21
59.25056090506337
 31
0.0
 11
36.4648180262474
 21
57.40258151226225
 31
0.0
 11
37.0635164768577
 21
55.55290270577514
 31
0.0
  0
SPLINE
  5
DC
330
47
100
AcDbEntity
  8
0
  6
Continuous
 62
     7
100
AcDbSpline
210
0.0
220
0.0
230
1.0
 70
     8
 71
     3
 72
    13
 73
     9
 74
     7
 42
0.000000001
 43
0.0000000001
 44
0.00000001
 40
0.0
 40
0.0
 40
0.0
 40
0.0
 40
1.618800875632753
 40
3.296662960630459
 40
5.042045806812697
 40
6.85771322122681
 40
8.741157514535912
 40
10.68531582205501
 40
10.68531582205501
 40
10.68531582205501
 40
10.68531582205501
 10
37.4635164768641
 20
66.29161771268873
 30
0.0
 10
37.24660978984254
 20
65.79619701053277
 30
0.0
 10
36.80488268819774
 20
64.7872804031447
 30
0.0
 10
36.45926078238092
 20
63.13156488091448
 30
0.0
 10
36.33680853708009
 20
61.38513558978964
 30
0.0
 10
36.46772146431572
 20
59.56997058885039
 30
0.0
 10
36.82471269680079
 20
57.71642223326356
 30
0.0
 10
37.24834198811254
 20
56.5113874693063
 30
0.0
 10
37.46351647685762
 20
55.89931286728893
 30
0.0
 11
37.4635164768641
 21
66.29161771268873
 31
0.0
 11
36.8648180262517
 21
64.78759761782622
 31
0.0
 11
36.50103983554285
 21
63.14964566135601
 31
0.0
 11
36.37901639149922
 21
61.40853349809936
 31
0.0
 11
36.50103983554061
 21
59.59697106657717
 31
0.0
 11
36.86481802624736
 21
57.74899167377605
 31
0.0
 11
37.46351647685762
 21
55.89931286728893
 31
0.0
  0
SPLINE
  5
DD
330
47
100
AcDbEntity
  8
0
  6
Continuous
 62
     7
100
AcDbSpline
210
0.0
220
0.0
230
1.0
 70
     8
 71
     3
 72
    11
 73
     7
 74
     5
 42
0.000000001
 43
0.0000000001
 44
0.00000001
 40
0.0
 40
0.0
 40
0.0
 40
0.0
 40
1.851422095567029
 40
3.785240840669458
 40
5.80567470266504
 40
7.908935340377935
 40
7.908935340377935
 40
7.908935340377935
 40
7.908935340377935
 10
-25.46351767639199
 20
76.20097891710115
 30
0.0
 10
-25.29267598425744
 20
76.79569501148222
 30
0.0
 10
-24.94338938729992
 20
78.01159475737768
 30
0.0
 10
-24.82205612219138
 20
79.95523779936363
 30
0.0
 10
-24.96001712755806
 20
81.97758601275453
 30
0.0
 10
-25.29345174648919
 20
83.31372135709594
 30
0.0
 10
-25.46351767639509
 20
83.99520755117764
 30
0.0
 11
-25.46351767639199
 21
76.20097891710115
 31
0.0
 11
-25.01562863900894
 21
77.99740848440315
 31
0.0
 11
-24.86517035101819
 21
79.92536523945246
 31
0.0
 11
-25.01562863901048
 21
81.94018912757537
 31
0.0
 11
-25.46351767639509
 21
83.99520755117764
 31
0.0
  0
ENDBLK
  5
49
330
47
100
AcDbEntity
  8
0
100
AcDbBlockEnd
  0
BLOCK
  5
4C
330
4A
100
AcDbEntity
  8
0
100
AcDbBlockBegin
  2
Allg1
 70
     0
 10
6.00000000000722
 20
72.99999999999704
 30
0.0
  3
Allg1
  1

  0
INSERT
  5
4B
330
4A
100
AcDbEntity
  8
0
100
AcDbBlockReference
  2
D_ST_2_5_QUATTRO_0_8_OG-select__1
 10
-25.46351767639509
 20
52.57459842682349
 30
0.0
  0
MTEXT
  5
DF
330
4A
100
AcDbEntity
  8
1
 62
     6
100
AcDbMText
 10
6.00000000001
 20
46.22277576776628
 30
0.0
 40
5.0
 41
0.0
 71
     2
 72
     1
  1
 
  7
CONVERTER_11
 73
     1
 44
1.32052821128451
  0
ENDBLK
  5
4D
330
4A
100
AcDbEntity
  8
0
100
AcDbBlockEnd
  0
BLOCK
  5
4F
330
4E
100
AcDbEntity
  8
0
100
AcDbBlockBegin
  2
D_ST_2_5_QUATTRO_0_8_OG-select__2
 70
     0
 10
-160.2000001547663
 20
72.59999969004707
 30
0.0
  3
D_ST_2_5_QUATTRO_0_8_OG-select__2
  1

  0
LINE
  5
E0
330
4E
100
AcDbEntity
  8
0
  6
Continuous
 62
     7
100
AcDbLine
 10
-159.1119561482046
 20
72.5999996900471
 30
0.0
 11
-159.1119561482065
 21
73.39999969004711
 31
0.0
  0
LINE
  5
E1
330
4E
100
AcDbEntity
  8
0
  6
Continuous
 62
     7
100
AcDbLine
 10
-159.6456344384561
 20
72.59999969004721
 30
0.0
 11
-159.6456344384561
 21
73.39999969004722
 31
0.0
  0
LINE
  5
E2
330
4E
100
AcDbEntity
  8
0
  6
Continuous
 62
     7
100
AcDbLine
 10
-158.9433965198473
 20
72.59999969004707
 30
0.0
 11
-158.9433965198495
 21
73.39999969004708
 31
0.0
  0
LINE
  5
E3
330
4E
100
AcDbEntity
  8
0
  6
Continuous
 62
     7
100
AcDbLine
 10
-160.2000001547663
 20
73.3999996900472
 30
0.0
 11
-160.2000001547642
 21
72.59999969004718
 31
0.0
  0
LINE
  5
E4
330
4E
100
AcDbEntity
  8
0
  6
Continuous
 62
     7
100
AcDbLine
 10
-88.54753407022233
 20
72.59999969005044
 30
0.0
 11
-88.00000015476442
 21
72.59999969005047
 31
0.0
  0
LINE
  5
E5
330
4E
100
AcDbEntity
  8
0
  6
Continuous
 62
     7
100
AcDbLine
 10
-88.00000015476446
 20
73.39999969005048
 30
0.0
 11
-88.00000015476442
 21
72.59999969005047
 31
0.0
  0
LINE
  5
E6
330
4E
100
AcDbEntity
  8
0
  6
Continuous
 62
     7
100
AcDbLine
 10
-88.54753407022238
 20
73.39999969005045
 30
0.0
 11
-88.00000015476446
 21
73.39999969005048
 31
0.0
  0
LINE
  5
E7
330
4E
100
AcDbEntity
  8
0
  6
Continuous
 62
     7
100
AcDbLine
 10
-89.25021043860994
 20
73.39999969005027
 30
0.0
 11
-89.25021043860775
 21
72.59999969005025
 31
0.0
  0
LINE
  5
E8
330
4E
100
AcDbEntity
  8
0
  6
Continuous
 62
     7
100
AcDbLine
 10
-114.3514318854844
 20
73.3999996900491
 30
0.0
 11
-114.3514318854844
 21
72.5999996900491
 31
0.0
  0
LINE
  5
E9
330
4E
100
AcDbEntity
  8
0
  6
Continuous
 62
     7
100
AcDbLine
 10
-89.0824748262406
 20
72.59999969005027
 30
0.0
 11
-89.0824748262425
 21
73.3999996900503
 31
0.0
  0
LINE
  5
EA
330
4E
100
AcDbEntity
  8
0
  6
Continuous
 62
     7
100
AcDbLine
 10
-88.54753407022233
 20
72.59999969005044
 30
0.0
 11
-88.54753407022238
 21
73.39999969005045
 31
0.0
  0
LINE
  5
EB
330
4E
100
AcDbEntity
  8
0
  6
Continuous
 62
     7
100
AcDbLine
 10
-160.2000001547642
 20
72.59999969004718
 30
0.0
 11
-159.6456344384561
 21
72.59999969004721
 31
0.0
  0
LINE
  5
EC
330
4E
100
AcDbEntity
  8
0
  6
Continuous
 62
     7
100
AcDbLine
 10
-159.1119561482046
 20
72.5999996900471
 30
0.0
 11
-159.6456344384561
 21
72.59999969004721
 31
0.0
  0
LINE
  5
ED
330
4E
100
AcDbEntity
  8
0
  6
Continuous
 62
     7
100
AcDbLine
 10
-158.9433965198473
 20
72.59999969004707
 30
0.0
 11
-159.1119561482046
 21
72.5999996900471
 31
0.0
  0
LINE
  5
EE
330
4E
100
AcDbEntity
  8
0
  6
Continuous
 62
     7
100
AcDbLine
 10
-158.9433965198473
 20
72.59999969004707
 30
0.0
 11
-123.9485684238002
 21
72.59999969004866
 31
0.0
  0
LINE
  5
EF
330
4E
100
AcDbEntity
  8
0
  6
Continuous
 62
     7
100
AcDbLine
 10
-123.493433524017
 20
72.59999969004869
 30
0.0
 11
-122.416152391528
 21
72.59999969004878
 31
0.0
  0
LINE
  5
F0
330
4E
100
AcDbEntity
  8
0
  6
Continuous
 62
     7
100
AcDbLine
 10
-123.9485684238002
 20
72.59999969004866
 30
0.0
 11
-123.493433524017
 21
72.59999969004869
 31
0.0
  0
LINE
  5
F1
330
4E
100
AcDbEntity
  8
0
  6
Continuous
 62
     7
100
AcDbLine
 10
-114.8065667852756
 20
73.3999996900491
 30
0.0
 11
-114.8065667852756
 21
72.59999969004909
 31
0.0
  0
LINE
  5
F2
330
4E
100
AcDbEntity
  8
0
  6
Continuous
 62
     7
100
AcDbLine
 10
-123.9485684238003
 20
73.39999969004867
 30
0.0
 11
-123.9485684238002
 21
72.59999969004866
 31
0.0
  0
LINE
  5
F3
330
4E
100
AcDbEntity
  8
0
  6
Continuous
 62
     7
100
AcDbLine
 10
-123.493433524017
 20
73.39999969004873
 30
0.0
 11
-123.493433524017
 21
72.59999969004869
 31
0.0
  0
LINE
  5
F4
330
4E
100
AcDbEntity
  8
0
  6
Continuous
 62
     7
100
AcDbLine
 10
-115.8838479177215
 20
72.59999969004906
 30
0.0
 11
-115.8838479177215
 21
73.39999969004907
 31
0.0
  0
LINE
  5
F5
330
4E
100
AcDbEntity
  8
0
  6
Continuous
 62
     7
100
AcDbLine
 10
-116.583847917755
 20
72.59999969004906
 30
0.0
 11
-116.583847917755
 21
73.39999969004906
 31
0.0
  0
LINE
  5
F6
330
4E
100
AcDbEntity
  8
0
  6
Continuous
 62
     7
100
AcDbLine
 10
-159.6456344384561
 20
73.39999969004722
 30
0.0
 11
-160.2000001547663
 21
73.3999996900472
 31
0.0
  0
LINE
  5
F7
330
4E
100
AcDbEntity
  8
0
  6
Continuous
 62
     7
100
AcDbLine
 10
-158.9433965198495
 20
73.39999969004708
 30
0.0
 11
-123.9485684238003
 21
73.39999969004867
 31
0.0
  0
LINE
  5
F8
330
4E
100
AcDbEntity
  8
0
  6
Continuous
 62
     7
100
AcDbLine
 10
-159.1119561482065
 20
73.39999969004711
 30
0.0
 11
-159.6456344384561
 21
73.39999969004722
 31
0.0
  0
LINE
  5
F9
330
4E
100
AcDbEntity
  8
0
  6
Continuous
 62
     7
100
AcDbLine
 10
-158.9433965198495
 20
73.39999969004708
 30
0.0
 11
-159.1119561482065
 21
73.39999969004711
 31
0.0
  0
LINE
  5
FA
330
4E
100
AcDbEntity
  8
0
  6
Continuous
 62
     7
100
AcDbLine
 10
-123.493433524017
 20
73.39999969004873
 30
0.0
 11
-123.9485684238003
 21
73.39999969004867
 31
0.0
  0
LINE
  5
FB
330
4E
100
AcDbEntity
  8
0
  6
Continuous
 62
     7
100
AcDbLine
 10
-122.416152391528
 20
73.39999969004879
 30
0.0
 11
-123.493433524017
 21
73.39999969004873
 31
0.0
  0
LINE
  5
FC
330
4E
100
AcDbEntity
  8
0
  6
Continuous
 62
     7
100
AcDbLine
 10
-122.416152391528
 20
72.59999969004878
 30
0.0
 11
-122.416152391528
 21
73.39999969004879
 31
0.0
  0
LINE
  5
FD
330
4E
100
AcDbEntity
  8
0
  6
Continuous
 62
     7
100
AcDbLine
 10
-121.716152391538
 20
73.39999969004883
 30
0.0
 11
-121.716152391538
 21
72.59999969004882
 31
0.0
  0
LINE
  5
FE
330
4E
100
AcDbEntity
  8
0
  6
Continuous
 62
     7
100
AcDbLine
 10
-121.716152391538
 20
73.39999969004883
 30
0.0
 11
-122.416152391528
 21
73.39999969004879
 31
0.0
  0
LINE
  5
FF
330
4E
100
AcDbEntity
  8
0
  6
Continuous
 62
     7
100
AcDbLine
 10
-115.8838479177215
 20
73.39999969004907
 30
0.0
 11
-116.583847917755
 21
73.39999969004906
 31
0.0
  0
LINE
  5
100
330
4E
100
AcDbEntity
  8
0
  6
Continuous
 62
     7
100
AcDbLine
 10
-89.0824748262425
 20
73.3999996900503
 30
0.0
 11
-89.25021043860994
 21
73.39999969005027
 31
0.0
  0
LINE
  5
101
330
4E
100
AcDbEntity
  8
0
  6
Continuous
 62
     7
100
AcDbLine
 10
-88.54753407022238
 20
73.39999969005045
 30
0.0
 11
-89.0824748262425
 21
73.3999996900503
 31
0.0
  0
LINE
  5
102
330
4E
100
AcDbEntity
  8
0
  6
Continuous
 62
     7
100
AcDbLine
 10
-89.25021043860994
 20
73.39999969005027
 30
0.0
 11
-114.3514318854844
 21
73.3999996900491
 31
0.0
  0
LINE
  5
103
330
4E
100
AcDbEntity
  8
0
  6
Continuous
 62
     7
100
AcDbLine
 10
-114.3514318854844
 20
73.3999996900491
 30
0.0
 11
-114.8065667852756
 21
73.3999996900491
 31
0.0
  0
LINE
  5
104
330
4E
100
AcDbEntity
  8
0
  6
Continuous
 62
     7
100
AcDbLine
 10
-114.8065667852756
 20
73.3999996900491
 30
0.0
 11
-115.8838479177215
 21
73.39999969004907
 31
0.0
  0
LINE
  5
105
330
4E
100
AcDbEntity
  8
0
  6
Continuous
 62
     7
100
AcDbLine
 10
-116.583847917755
 20
73.39999969004906
 30
0.0
 11
-121.716152391538
 21
73.39999969004883
 31
0.0
  0
LINE
  5
106
330
4E
100
AcDbEntity
  8
0
  6
Continuous
 62
     7
100
AcDbLine
 10
-121.716152391538
 20
72.59999969004882
 30
0.0
 11
-116.583847917755
 21
72.59999969004906
 31
0.0
  0
LINE
  5
107
330
4E
100
AcDbEntity
  8
0
  6
Continuous
 62
     7
100
AcDbLine
 10
-122.416152391528
 20
72.59999969004878
 30
0.0
 11
-121.716152391538
 21
72.59999969004882
 31
0.0
  0
LINE
  5
108
330
4E
100
AcDbEntity
  8
0
  6
Continuous
 62
     7
100
AcDbLine
 10
-116.583847917755
 20
72.59999969004906
 30
0.0
 11
-115.8838479177215
 21
72.59999969004906
 31
0.0
  0
LINE
  5
109
330
4E
100
AcDbEntity
  8
0
  6
Continuous
 62
     7
100
AcDbLine
 10
-89.25021043860775
 20
72.59999969005025
 30
0.0
 11
-89.0824748262406
 21
72.59999969005027
 31
0.0
  0
LINE
  5
10A
330
4E
100
AcDbEntity
  8
0
  6
Continuous
 62
     7
100
AcDbLine
 10
-114.3514318854844
 20
72.5999996900491
 30
0.0
 11
-89.25021043860775
 21
72.59999969005025
 31
0.0
  0
LINE
  5
10B
330
4E
100
AcDbEntity
  8
0
  6
Continuous
 62
     7
100
AcDbLine
 10
-114.8065667852756
 20
72.59999969004909
 30
0.0
 11
-114.3514318854844
 21
72.5999996900491
 31
0.0
  0
LINE
  5
10C
330
4E
100
AcDbEntity
  8
0
  6
Continuous
 62
     7
100
AcDbLine
 10
-115.8838479177215
 20
72.59999969004906
 30
0.0
 11
-114.8065667852756
 21
72.59999969004909
 31
0.0
  0
LINE
  5
10D
330
4E
100
AcDbEntity
  8
0
  6
Continuous
 62
     7
100
AcDbLine
 10
-89.0824748262406
 20
72.59999969005027
 30
0.0
 11
-88.54753407022233
 21
72.59999969005044
 31
0.0
  0
ENDBLK
  5
50
330
4E
100
AcDbEntity
  8
0
100
AcDbBlockEnd
  0
BLOCK
  5
53
330
51
100
AcDbEntity
  8
0
100
AcDbBlockBegin
  2
Drfsicht1
 70
     0
 10
-124.0999994277878
 20
72.99999963044408
 30
0.0
  3
Drfsicht1
  1

  0
INSERT
  5
52
330
51
100
AcDbEntity
  8
0
100
AcDbBlockReference
  2
D_ST_2_5_QUATTRO_0_8_OG-select__2
 10
-160.2000001547663
 20
72.59999969004707
 30
0.0
  0
MTEXT
  5
10E
330
51
100
AcDbEntity
  8
1
 62
     6
100
AcDbMText
 10
-124.0999994277876
 20
67.59999959467886
 30
0.0
 40
5.0
 41
0.0
 71
     2
 72
     1
  1
 
  7
CONVERTER_11
 73
     1
 44
1.32052821128451
  0
DIMENSION
  5
11B
330
51
100
AcDbEntity
  8
1
100
AcDbDimension
  2
*D17
 10
-170.2000001547663
 20
73.3999996900202
 30
0.0
 11
-173.6250001547665
 21
73.46543911986598
 31
0.0
 70
    33
  1
<>
 71
     5
 42
-1.0
 53
-89.99999999985143
  3
ME10_DIM_10
100
AcDbAlignedDimension
 13
-160.2000001547642
 23
72.59999969004718
 33
0.0
 14
-160.2000001547663
 24
73.3999996900472
 34
0.0
  0
ENDBLK
  5
54
330
51
100
AcDbEntity
  8
0
100
AcDbBlockEnd
  0
BLOCK
  5
56
330
55
100
AcDbEntity
  8
0
100
AcDbBlockBegin
  2
D_ST_2_5_QUATTRO_0_8_OG-select__3
 70
     0
 10
-40.9715288452406
 20
125.9465294803896
 30
0.0
  3
D_ST_2_5_QUATTRO_0_8_OG-select__3
  1

  0
LINE
  5
11C
330
55
100
AcDbEntity
  8
0
  6
Continuous
 62
     7
100
AcDbLine
 10
30.67410543845099
 20
147.9617919834641
 30
0.0
 11
31.22847115476131
 21
147.7600193638342
 31
0.0
  0
LINE
  5
11D
330
55
100
AcDbEntity
  8
0
  6
Continuous
 62
     7
100
AcDbLine
 10
31.22847115476131
 20
147.7600193638342
 30
0.0
 11
31.22847115476552
 21
142.9465294804036
 31
0.0
  0
LINE
  5
11E
330
55
100
AcDbEntity
  8
0
  6
Continuous
 62
     7
100
AcDbLine
 10
31.2284711547623
 20
133.9465294803848
 30
0.0
 11
31.22847115476449
 21
125.9465294803995
 31
0.0
  0
LINE
  5
11F
330
55
100
AcDbEntity
  8
0
  6
Continuous
 62
     7
100
AcDbLine
 10
29.97186751984441
 20
154.9965294803741
 30
0.0
 11
30.14042714820141
 21
154.040580324555
 31
0.0
  0
LINE
  5
120
330
55
100
AcDbEntity
  8
0
  6
Continuous
 62
     7
100
AcDbLine
 10
30.7218296104038
 20
147.6911347547132
 30
0.0
 11
30.67410543845099
 21
147.9617919834641
 31
0.0
  0
LINE
  5
121
330
55
100
AcDbEntity
  8
0
  6
Continuous
 62
     7
100
AcDbLine
 10
-4.9215288453766
 20
153.5465294803644
 30
0.0
 11
-4.92152884537231
 21
154.3465294804487
 31
0.0
  0
LINE
  5
122
330
55
100
AcDbEntity
  8
0
  6
Continuous
 62
     7
100
AcDbLine
 10
-14.16496221472949
 20
154.3465294804473
 30
0.0
 11
-14.7215288453455
 21
154.3465294804473
 31
0.0
  0
LINE
  5
123
330
55
100
AcDbEntity
  8
0
  6
Continuous
 62
     7
100
AcDbLine
 10
-4.92152884537231
 20
154.3465294804487
 30
0.0
 11
-5.47809547598808
 21
154.3465294804487
 31
0.0
  0
LINE
  5
124
330
55
100
AcDbEntity
  8
0
  6
Continuous
 62
     7
100
AcDbLine
 10
-14.7215288453455
 20
154.3465294804473
 30
0.0
 11
-14.7215288453409
 21
153.5465294804057
 31
0.0
  0
LINE
  5
125
330
55
100
AcDbEntity
  8
0
  6
Continuous
 62
     7
100
AcDbLine
 10
-35.56423788526669
 20
125.9465294803896
 30
0.0
 11
-0.1715288452645
 21
125.9465294803949
 31
0.0
  0
LINE
  5
126
330
55
100
AcDbEntity
  8
0
  6
Continuous
 62
     7
100
AcDbLine
 10
29.67428588265051
 20
147.5064245320379
 30
0.0
 11
30.7218296104038
 21
147.6911347547132
 31
0.0
  0
LINE
  5
127
330
55
100
AcDbEntity
  8
0
  6
Continuous
 62
     7
100
AcDbLine
 10
-40.4712806519574
 20
147.691134754702
 30
0.0
 11
-39.41753635623519
 21
147.5053312045985
 31
0.0
  0
LINE
  5
128
330
55
100
AcDbEntity
  8
0
  6
Continuous
 62
     7
100
AcDbLine
 10
-40.4712806519574
 20
147.691134754702
 30
0.0
 11
-40.42399492978269
 21
147.9593054111977
 31
0.0
  0
LINE
  5
129
330
55
100
AcDbEntity
  8
0
  6
Continuous
 62
     7
100
AcDbLine
 10
-40.42399492978269
 20
147.9593054111977
 30
0.0
 11
-40.9715288452406
 21
147.7600193637242
 31
0.0
  0
LINE
  5
12A
330
55
100
AcDbEntity
  8
0
  6
Continuous
 62
     7
100
AcDbLine
 10
-40.9715288452399
 20
142.9465294803841
 30
0.0
 11
-40.9715288452406
 21
147.7600193637242
 31
0.0
  0
LINE
  5
12B
330
55
100
AcDbEntity
  8
0
  6
Continuous
 62
     7
100
AcDbLine
 10
-12.38768108225008
 20
152.8465294803727
 30
0.0
 11
-12.9965288453586
 21
152.8465294803726
 31
0.0
  0
LINE
  5
12C
330
55
100
AcDbEntity
  8
0
  6
Continuous
 62
     7
100
AcDbLine
 10
-12.9965288453586
 20
152.8465294803726
 30
0.0
 11
-12.99652884535848
 21
151.7965294803729
 31
0.0
  0
LINE
  5
12D
330
55
100
AcDbEntity
  8
0
  6
Continuous
 62
     7
100
AcDbLine
 10
-6.64652884535869
 20
152.846529480374
 30
0.0
 11
-7.25537660846709
 21
152.8465294803739
 31
0.0
  0
LINE
  5
12E
330
55
100
AcDbEntity
  8
0
  6
Continuous
 62
     7
100
AcDbLine
 10
-7.25537660846709
 20
152.8465294803739
 30
0.0
 11
-6.5553766084771
 21
153.5465294803641
 31
0.0
  0
LINE
  5
12F
330
55
100
AcDbEntity
  8
0
  6
Continuous
 62
     7
100
AcDbLine
 10
-6.64652884535849
 20
151.7965294803742
 30
0.0
 11
-6.64652884535869
 21
152.846529480374
 31
0.0
  0
LINE
  5
130
330
55
100
AcDbEntity
  8
0
  6
Continuous
 62
     7
100
AcDbLine
 10
-12.99652884535848
 20
151.7965294803729
 30
0.0
 11
-6.64652884535849
 21
151.7965294803742
 31
0.0
  0
LINE
  5
131
330
55
100
AcDbEntity
  8
0
  6
Continuous
 62
     7
100
AcDbLine
 10
-38.3192116324914
 20
153.7342402424009
 30
0.0
 11
-39.41753635623519
 21
147.5053312045985
 31
0.0
  0
LINE
  5
132
330
55
100
AcDbEntity
  8
0
  6
Continuous
 62
     7
100
AcDbLine
 10
-40.97152884523649
 20
130.9465294803973
 30
0.0
 11
-40.97152884523619
 21
128.9465294803789
 31
0.0
  0
LINE
  5
133
330
55
100
AcDbEntity
  8
0
  6
Continuous
 62
     7
100
AcDbLine
 10
-6.5553766084771
 20
153.5465294803641
 30
0.0
 11
-4.9215288453766
 21
153.5465294803644
 31
0.0
  0
LINE
  5
134
330
55
100
AcDbEntity
  8
0
  6
Continuous
 62
     7
100
AcDbLine
 10
-13.08768108228361
 20
153.5465294804059
 30
0.0
 11
-12.38768108225008
 21
152.8465294803727
 31
0.0
  0
LINE
  5
135
330
55
100
AcDbEntity
  8
0
  6
Continuous
 62
     7
100
AcDbLine
 10
-14.7215288453409
 20
153.5465294804057
 30
0.0
 11
-13.08768108228361
 21
153.5465294804059
 31
0.0
  0
LINE
  5
136
330
55
100
AcDbEntity
  8
0
  6
Continuous
 62
     7
100
AcDbLine
 10
29.97186751984441
 20
154.9965294803741
 30
0.0
 11
-5.02296057620481
 21
154.9965294803731
 31
0.0
  0
LINE
  5
137
330
55
100
AcDbEntity
  8
0
  6
Continuous
 62
     7
100
AcDbLine
 10
-39.72131856139519
 20
154.996529480379
 30
0.0
 11
-14.62009711452069
 21
154.9965294803827
 31
0.0
  0
LINE
  5
138
330
55
100
AcDbEntity
  8
0
  6
Continuous
 62
     7
100
AcDbLine
 10
-0.1715288452645
 20
125.9465294803949
 30
0.0
 11
0.8284711547677
 21
126.9465294804274
 31
0.0
  0
LINE
  5
139
330
55
100
AcDbEntity
  8
0
  6
Continuous
 62
     7
100
AcDbLine
 10
0.8284711547677
 20
126.9465294804274
 30
0.0
 11
2.3284711547677
 21
126.9465294804276
 31
0.0
  0
LINE
  5
13A
330
55
100
AcDbEntity
  8
0
  6
Continuous
 62
     7
100
AcDbLine
 10
2.3284711547677
 20
126.9465294804276
 30
0.0
 11
3.3284711548003
 21
125.9465294803954
 31
0.0
  0
LINE
  5
13B
330
55
100
AcDbEntity
  8
0
  6
Continuous
 62
     7
100
AcDbLine
 10
3.3284711548003
 20
125.9465294803954
 30
0.0
 11
31.22847115476449
 21
125.9465294803995
 31
0.0
  0
LINE
  5
13C
330
55
100
AcDbEntity
  8
0
  6
Continuous
 62
     7
100
AcDbLine
 10
-39.8890541737626
 20
154.0452535514589
 30
0.0
 11
-39.4202416503894
 21
153.6518731360063
 31
0.0
  0
LINE
  5
13D
330
55
100
AcDbEntity
  8
0
  6
Continuous
 62
     7
100
AcDbLine
 10
-39.4202416503894
 20
153.6518731360063
 30
0.0
 11
-39.37295592821479
 21
153.9200437925043
 31
0.0
  0
LINE
  5
13E
330
55
100
AcDbEntity
  8
0
  6
Continuous
 62
     7
100
AcDbLine
 10
29.6236976697665
 20
153.9189504651846
 30
0.0
 11
28.57615394201201
 21
153.7342402425095
 31
0.0
  0
LINE
  5
13F
330
55
100
AcDbEntity
  8
0
  6
Continuous
 62
     7
100
AcDbLine
 10
-38.3192116324914
 20
153.7342402424009
 30
0.0
 11
-39.37295592821479
 21
153.9200437925043
 31
0.0
  0
LINE
  5
140
330
55
100
AcDbEntity
  8
0
  6
Continuous
 62
     7
100
AcDbLine
 10
-5.47809547598808
 20
154.3465294804487
 30
0.0
 11
-5.02296057620481
 21
154.9965294803731
 31
0.0
  0
LINE
  5
141
330
55
100
AcDbEntity
  8
0
  6
Continuous
 62
     7
100
AcDbLine
 10
-14.62009711452069
 20
154.9965294803827
 30
0.0
 11
-14.16496221472949
 21
154.3465294804473
 31
0.0
  0
LINE
  5
142
330
55
100
AcDbEntity
  8
0
  6
Continuous
 62
     7
100
AcDbLine
 10
-39.8890541737626
 20
154.0452535514589
 30
0.0
 11
-39.72131856139519
 21
154.996529480379
 31
0.0
  0
LINE
  5
143
330
55
100
AcDbEntity
  8
0
  6
Continuous
 62
     7
100
AcDbLine
 10
29.67161462482642
 20
153.6471999091008
 30
0.0
 11
29.6236976697665
 21
153.9189504651846
 31
0.0
  0
LINE
  5
144
330
55
100
AcDbEntity
  8
0
  6
Continuous
 62
     7
100
AcDbLine
 10
30.14042714820141
 20
154.040580324555
 30
0.0
 11
29.67161462482642
 21
153.6471999091008
 31
0.0
  0
LINE
  5
145
330
55
100
AcDbEntity
  8
0
  6
Continuous
 62
     7
100
AcDbLine
 10
28.57615394201201
 20
153.7342402425095
 30
0.0
 11
29.67428588265051
 21
147.5064245320379
 31
0.0
  0
LINE
  5
146
330
55
100
AcDbEntity
  8
0
  6
Continuous
 62
     7
100
AcDbLine
 10
-35.56423788526669
 20
125.9465294803896
 30
0.0
 11
-40.97152884523619
 21
128.9465294803789
 31
0.0
  0
ARC
  5
147
330
55
100
AcDbEntity
  8
0
  6
Continuous
 62
     7
100
AcDbCircle
 10
45.53755917601521
 20
138.4465294803891
 30
0.0
 40
15.00000000000006
100
AcDbArc
 50
162.54239687622
 51
197.4576031237392
  0
ARC
  5
148
330
55
100
AcDbEntity
  8
0
  6
Continuous
 62
     7
100
AcDbCircle
 10
-54.71925593010653
 20
136.9465294803868
 30
0.0
 40
14.99999999999811
100
AcDbArc
 50
336.4218215218387
 51
23.57817847819375
  0
ENDBLK
  5
57
330
55
100
AcDbEntity
  8
0
100
AcDbBlockEnd
  0
BLOCK
  5
5A
330
58
100
AcDbEntity
  8
0
100
AcDbBlockBegin
  2
Rckans1
 70
     0
 10
-4.87152957221531
 20
140.47153
 30
0.0
  3
Rckans1
  1

  0
INSERT
  5
59
330
58
100
AcDbEntity
  8
0
100
AcDbBlockReference
  2
D_ST_2_5_QUATTRO_0_8_OG-select__3
 10
-40.9715288452406
 20
125.9465294803896
 30
0.0
  0
MTEXT
  5
149
330
58
100
AcDbEntity
  8
1
 62
     6
100
AcDbMText
 10
-7.90000057221232
 20
124.4749996662087
 30
0.0
 40
5.0
 41
0.0
 71
     2
 72
     1
  1
 
  7
CONVERTER_11
 73
     1
 44
1.32052821128451
  0
ENDBLK
  5
5B
330
58
100
AcDbEntity
  8
0
100
AcDbBlockEnd
  0
BLOCK
  5
5D
330
5C
100
AcDbEntity
  8
0
100
AcDbBlockBegin
  2
D_ST_2_5_QUATTRO_0_8_OG-select__4
 70
     0
 10
-66.27847005960363
 20
125.9465294803995
 30
0.0
  3
D_ST_2_5_QUATTRO_0_8_OG-select__4
  1

  0
LINE
  5
14A
330
5C
100
AcDbEntity
  8
0
  6
Continuous
 62
     7
100
AcDbLine
 10
-66.27847005960302
 20
154.040580324555
 30
0.0
 11
-66.27847005960305
 21
153.6471999091007
 31
0.0
  0
LINE
  5
14B
330
5C
100
AcDbEntity
  8
0
  6
Continuous
 62
     7
100
AcDbLine
 10
-66.27847005960305
 20
153.6471999091007
 30
0.0
 11
-66.27847005960314
 21
147.9617919834641
 31
0.0
  0
LINE
  5
14C
330
5C
100
AcDbEntity
  8
0
  6
Continuous
 62
     7
100
AcDbLine
 10
-66.27847005960301
 20
154.9965294803741
 30
0.0
 11
-66.27847005960302
 21
154.040580324555
 31
0.0
  0
LINE
  5
14D
330
5C
100
AcDbEntity
  8
0
  6
Continuous
 62
     7
100
AcDbLine
 10
-66.27847005960314
 20
147.9617919834641
 30
0.0
 11
-66.27847005960312
 21
147.7600193638342
 31
0.0
  0
LINE
  5
14E
330
5C
100
AcDbEntity
  8
0
  6
Continuous
 62
     7
100
AcDbLine
 10
-66.27847005960312
 20
147.7600193638342
 30
0.0
 11
-66.27847005960324
 21
142.9465294804036
 31
0.0
  0
LINE
  5
14F
330
5C
100
AcDbEntity
  8
0
  6
Continuous
 62
     7
100
AcDbLine
 10
-66.27847005960344
 20
133.9465294803848
 30
0.0
 11
-66.27847005960363
 21
125.9465294803995
 31
0.0
  0
LINE
  5
150
330
5C
100
AcDbEntity
  8
0
  6
Continuous
 62
     7
100
AcDbLine
 10
-65.47847005960342
 20
133.9465294803854
 30
0.0
 11
-65.47847005960323
 21
142.9465294804036
 31
0.0
  0
LINE
  5
151
330
5C
100
AcDbEntity
  8
0
  6
Continuous
 62
     7
100
AcDbLine
 10
-65.47847005960362
 20
125.9465294803995
 30
0.0
 11
-65.47847005960342
 21
133.9465294803854
 31
0.0
  0
LINE
  5
152
330
5C
100
AcDbEntity
  8
0
  6
Continuous
 62
     7
100
AcDbLine
 10
-66.27847005960305
 20
153.6471999091007
 30
0.0
 11
-65.47847005960304
 21
153.6471999091007
 31
0.0
  0
LINE
  5
153
330
5C
100
AcDbEntity
  8
0
  6
Continuous
 62
     7
100
AcDbLine
 10
-65.47847005960301
 20
154.0405803245534
 30
0.0
 11
-66.27847005960302
 21
154.040580324555
 31
0.0
  0
LINE
  5
154
330
5C
100
AcDbEntity
  8
0
  6
Continuous
 62
     7
100
AcDbLine
 10
-65.478470059603
 20
154.996529480374
 30
0.0
 11
-66.27847005960301
 21
154.9965294803741
 31
0.0
  0
LINE
  5
155
330
5C
100
AcDbEntity
  8
0
  6
Continuous
 62
     7
100
AcDbLine
 10
-65.47847005960301
 20
154.0405803245534
 30
0.0
 11
-65.47847005960304
 21
153.6471999091007
 31
0.0
  0
LINE
  5
156
330
5C
100
AcDbEntity
  8
0
  6
Continuous
 62
     7
100
AcDbLine
 10
-65.47847005960313
 20
147.9617919834641
 30
0.0
 11
-65.47847005960304
 21
153.6471999091007
 31
0.0
  0
LINE
  5
157
330
5C
100
AcDbEntity
  8
0
  6
Continuous
 62
     7
100
AcDbLine
 10
-65.478470059603
 20
154.996529480374
 30
0.0
 11
-65.47847005960301
 21
154.0405803245534
 31
0.0
  0
LINE
  5
158
330
5C
100
AcDbEntity
  8
0
  6
Continuous
 62
     7
100
AcDbLine
 10
-66.27847005960344
 20
133.9465294803848
 30
0.0
 11
-65.47847005960342
 21
133.9465294803854
 31
0.0
  0
LINE
  5
159
330
5C
100
AcDbEntity
  8
0
  6
Continuous
 62
     7
100
AcDbLine
 10
-65.47847005960362
 20
125.9465294803995
 30
0.0
 11
-66.27847005960363
 21
125.9465294803995
 31
0.0
  0
LINE
  5
15A
330
5C
100
AcDbEntity
  8
0
  6
Continuous
 62
     7
100
AcDbLine
 10
-66.27847005960312
 20
147.7600193638342
 30
0.0
 11
-65.47847005960311
 21
147.7600193638349
 31
0.0
  0
LINE
  5
15B
330
5C
100
AcDbEntity
  8
0
  6
Continuous
 62
     7
100
AcDbLine
 10
-65.47847005960313
 20
147.9617919834641
 30
0.0
 11
-66.27847005960314
 21
147.9617919834641
 31
0.0
  0
LINE
  5
15C
330
5C
100
AcDbEntity
  8
0
  6
Continuous
 62
     7
100
AcDbLine
 10
-66.27847005960324
 20
142.9465294804036
 30
0.0
 11
-65.47847005960323
 21
142.9465294804036
 31
0.0
  0
LINE
  5
15D
330
5C
100
AcDbEntity
  8
0
  6
Continuous
 62
     7
100
AcDbLine
 10
-65.47847005960311
 20
147.7600193638349
 30
0.0
 11
-65.47847005960313
 21
147.9617919834641
 31
0.0
  0
LINE
  5
15E
330
5C
100
AcDbEntity
  8
0
  6
Continuous
 62
     7
100
AcDbLine
 10
-65.47847005960323
 20
142.9465294804036
 30
0.0
 11
-65.47847005960311
 21
147.7600193638349
 31
0.0
  0
LINE
  5
15F
330
5C
100
AcDbEntity
  8
0
  6
Continuous
 62
     7
100
AcDbLine
 10
-66.27847005960344
 20
133.9465294803848
 30
0.0
 11
-66.27847005960324
 21
142.9465294804036
 31
0.0
  0
ENDBLK
  5
5E
330
5C
100
AcDbEntity
  8
0
100
AcDbBlockEnd
  0
BLOCK
  5
61
330
5F
100
AcDbEntity
  8
0
100
AcDbBlockBegin
  2
SA_Links1
 70
     0
 10
-65.87847
 20
140.47153
 30
0.0
  3
SA_Links1
  1

  0
INSERT
  5
60
330
5F
100
AcDbEntity
  8
0
100
AcDbBlockReference
  2
D_ST_2_5_QUATTRO_0_8_OG-select__4
 10
-66.27847005960363
 20
125.9465294803995
 30
0.0
  0
MTEXT
  5
160
330
5F
100
AcDbEntity
  8
1
 62
     6
100
AcDbMText
 10
-66.0
 20
124.4749996662087
 30
0.0
 40
5.0
 41
0.0
 71
     2
 72
     1
  1
 
  7
CONVERTER_11
 73
     1
 44
1.32052821128451
  0
ENDBLK
  5
62
330
5F
100
AcDbEntity
  8
0
100
AcDbBlockEnd
  0
BLOCK
  5
64
330
63
100
AcDbEntity
  8
0
100
AcDbBlockBegin
  2
D_ST_2_5_QUATTRO_0_8_OG-select__5
 70
     0
 10
-198.5999987959892
 20
129.4749994803896
 30
0.0
  3
D_ST_2_5_QUATTRO_0_8_OG-select__5
  1

  0
LINE
  5
161
330
63
100
AcDbEntity
  8
0
  6
Continuous
 62
     7
100
AcDbLine
 10
-197.7999987959889
 20
146.4749994803841
 30
0.0
 11
-198.5999987959889
 21
146.4749994803841
 31
0.0
  0
LINE
  5
162
330
63
100
AcDbEntity
  8
0
  6
Continuous
 62
     7
100
AcDbLine
 10
-198.599998795989
 20
151.4877754111977
 30
0.0
 11
-197.799998795989
 21
151.4877754111977
 31
0.0
  0
LINE
  5
163
330
63
100
AcDbEntity
  8
0
  6
Continuous
 62
     7
100
AcDbLine
 10
-197.7999987959892
 20
157.1803431360064
 30
0.0
 11
-198.5999987959892
 21
157.1803431360063
 31
0.0
  0
LINE
  5
164
330
63
100
AcDbEntity
  8
0
  6
Continuous
 62
     7
100
AcDbLine
 10
-198.5999987959889
 20
146.4749994803841
 30
0.0
 11
-198.599998795989
 21
151.2884893637242
 31
0.0
  0
LINE
  5
165
330
63
100
AcDbEntity
  8
0
  6
Continuous
 62
     7
100
AcDbLine
 10
-198.5999987959892
 20
157.1803431360063
 30
0.0
 11
-198.599998795989
 21
151.4877754111977
 31
0.0
  0
LINE
  5
166
330
63
100
AcDbEntity
  8
0
  6
Continuous
 62
     7
100
AcDbLine
 10
-197.7999987959892
 20
158.524999480379
 30
0.0
 11
-198.5999987959892
 21
158.524999480379
 31
0.0
  0
LINE
  5
167
330
63
100
AcDbEntity
  8
0
  6
Continuous
 62
     7
100
AcDbLine
 10
-198.599998795989
 20
151.4877754111977
 30
0.0
 11
-198.599998795989
 21
151.2884893637242
 31
0.0
  0
LINE
  5
168
330
63
100
AcDbEntity
  8
0
  6
Continuous
 62
     7
100
AcDbLine
 10
-197.799998795989
 20
151.4877754111977
 30
0.0
 11
-197.799998795989
 21
151.2884893637242
 31
0.0
  0
LINE
  5
169
330
63
100
AcDbEntity
  8
0
  6
Continuous
 62
     7
100
AcDbLine
 10
-197.7999987959892
 20
157.5737235514589
 30
0.0
 11
-197.7999987959892
 21
157.1803431360064
 31
0.0
  0
LINE
  5
16A
330
63
100
AcDbEntity
  8
0
  6
Continuous
 62
     7
100
AcDbLine
 10
-198.5999987959892
 20
157.5737235514604
 30
0.0
 11
-198.5999987959892
 21
157.1803431360063
 31
0.0
  0
LINE
  5
16B
330
63
100
AcDbEntity
  8
0
  6
Continuous
 62
     7
100
AcDbLine
 10
-197.799998795989
 20
151.2884893637242
 30
0.0
 11
-198.599998795989
 21
151.2884893637242
 31
0.0
  0
LINE
  5
16C
330
63
100
AcDbEntity
  8
0
  6
Continuous
 62
     7
100
AcDbLine
 10
-198.5999987959892
 20
157.5737235514604
 30
0.0
 11
-197.7999987959892
 21
157.5737235514589
 31
0.0
  0
LINE
  5
16D
330
63
100
AcDbEntity
  8
0
  6
Continuous
 62
     7
100
AcDbLine
 10
-198.5999987959892
 20
158.524999480379
 30
0.0
 11
-198.5999987959892
 21
157.5737235514604
 31
0.0
  0
LINE
  5
16E
330
63
100
AcDbEntity
  8
0
  6
Continuous
 62
     7
100
AcDbLine
 10
-197.7999987959889
 20
146.4749994803841
 30
0.0
 11
-197.799998795989
 21
151.2884893637242
 31
0.0
  0
LINE
  5
16F
330
63
100
AcDbEntity
  8
0
  6
Continuous
 62
     7
100
AcDbLine
 10
-197.7999987959892
 20
157.5737235514589
 30
0.0
 11
-197.7999987959892
 21
158.524999480379
 31
0.0
  0
LINE
  5
170
330
63
100
AcDbEntity
  8
0
  6
Continuous
 62
     7
100
AcDbLine
 10
-197.7999987959886
 20
134.4749994803973
 30
0.0
 11
-197.7999987959886
 21
132.4749994803789
 31
0.0
  0
LINE
  5
171
330
63
100
AcDbEntity
  8
0
  6
Continuous
 62
     7
100
AcDbLine
 10
-197.7999987959889
 20
146.4749994803841
 30
0.0
 11
-197.7999987959886
 21
134.4749994803973
 31
0.0
  0
LINE
  5
172
330
63
100
AcDbEntity
  8
0
  6
Continuous
 62
     7
100
AcDbLine
 10
-197.7999987959892
 20
157.1803431360064
 30
0.0
 11
-197.799998795989
 21
151.4877754111977
 31
0.0
  0
LINE
  5
173
330
63
100
AcDbEntity
  8
0
  6
Continuous
 62
     7
100
AcDbLine
 10
-197.7999987959887
 20
129.4749994803896
 30
0.0
 11
-197.7999987959886
 21
132.4749994803789
 31
0.0
  0
LINE
  5
174
330
63
100
AcDbEntity
  8
0
  6
Continuous
 62
     7
100
AcDbLine
 10
-198.5999987959886
 20
132.4749994803801
 30
0.0
 11
-198.5999987959887
 21
129.4749994803896
 31
0.0
  0
LINE
  5
175
330
63
100
AcDbEntity
  8
0
  6
Continuous
 62
     7
100
AcDbLine
 10
-198.5999987959887
 20
129.4749994803896
 30
0.0
 11
-197.7999987959887
 21
129.4749994803896
 31
0.0
  0
LINE
  5
176
330
63
100
AcDbEntity
  8
0
  6
Continuous
 62
     7
100
AcDbLine
 10
-198.5999987959886
 20
134.4749994803854
 30
0.0
 11
-198.5999987959886
 21
132.4749994803801
 31
0.0
  0
LINE
  5
177
330
63
100
AcDbEntity
  8
0
  6
Continuous
 62
     7
100
AcDbLine
 10
-197.7999987959886
 20
134.4749994803973
 30
0.0
 11
-198.5999987959886
 21
134.4749994803854
 31
0.0
  0
LINE
  5
178
330
63
100
AcDbEntity
  8
0
  6
Continuous
 62
     7
100
AcDbLine
 10
-197.7999987959886
 20
132.4749994803789
 30
0.0
 11
-198.5999987959886
 21
132.4749994803801
 31
0.0
  0
LINE
  5
179
330
63
100
AcDbEntity
  8
0
  6
Continuous
 62
     7
100
AcDbLine
 10
-198.5999987959889
 20
146.4749994803841
 30
0.0
 11
-198.5999987959886
 21
134.4749994803854
 31
0.0
  0
ENDBLK
  5
65
330
63
100
AcDbEntity
  8
0
100
AcDbBlockEnd
  0
BLOCK
  5
68
330
66
100
AcDbEntity
  8
0
100
AcDbBlockBegin
  2
SA_Rechts1
 70
     0
 10
-198.1999988555954
 20
144.0
 30
0.0
  3
SA_Rechts1
  1

  0
INSERT
  5
67
330
66
100
AcDbEntity
  8
0
100
AcDbBlockReference
  2
D_ST_2_5_QUATTRO_0_8_OG-select__5
 10
-198.5999987959892
 20
129.4749994803896
 30
0.0
  0
MTEXT
  5
17A
330
66
100
AcDbEntity
  8
1
 62
     6
100
AcDbMText
 10
-198.1999988555954
 20
124.4749996662087
 30
0.0
 40
5.0
 41
0.0
 71
     2
 72
     1
  1
 
  7
CONVERTER_11
 73
     1
 44
1.32052821128451
  0
ENDBLK
  5
69
330
66
100
AcDbEntity
  8
0
100
AcDbBlockEnd
  0
BLOCK
  5
6B
330
6A
100
AcDbEntity
  8
0
100
AcDbBlockBegin
  2
D_ST_2_5_QUATTRO_0_8_OG-select__6
 70
     0
 10
-160.2000001547726
 20
129.4749994803896
 30
0.0
  3
D_ST_2_5_QUATTRO_0_8_OG-select__6
  1

  0
LINE
  5
17B
330
6A
100
AcDbEntity
  8
0
  6
Continuous
 62
     7
100
AcDbLine
 10
-160.2000001547726
 20
146.4749994804036
 30
0.0
 11
-160.2000001547662
 21
151.288489363835
 31
0.0
  0
LINE
  5
17C
330
6A
100
AcDbEntity
  8
0
  6
Continuous
 62
     7
100
AcDbLine
 10
-158.6458148826574
 20
151.0348945320386
 30
0.0
 11
-157.5476829420191
 21
157.2627102425095
 31
0.0
  0
LINE
  5
17D
330
6A
100
AcDbEntity
  8
0
  6
Continuous
 62
     7
100
AcDbLine
 10
-158.9433965198493
 20
158.5249994803741
 30
0.0
 11
-159.1119561482066
 21
157.5690503245534
 31
0.0
  0
LINE
  5
17E
330
6A
100
AcDbEntity
  8
0
  6
Continuous
 62
     7
100
AcDbLine
 10
-158.9433965198493
 20
158.5249994803741
 30
0.0
 11
-123.9485684238022
 21
158.5249994803731
 31
0.0
  0
LINE
  5
17F
330
6A
100
AcDbEntity
  8
0
  6
Continuous
 62
     7
100
AcDbLine
 10
-89.25021043860974
 20
158.524999480379
 30
0.0
 11
-89.08247482624259
 21
157.5737235514604
 31
0.0
  0
LINE
  5
180
330
6A
100
AcDbEntity
  8
0
  6
Continuous
 62
     7
100
AcDbLine
 10
-124.0500001546348
 20
157.8749994804487
 30
0.0
 11
-123.493433524019
 21
157.8749994804486
 31
0.0
  0
LINE
  5
181
330
6A
100
AcDbEntity
  8
0
  6
Continuous
 62
     7
100
AcDbLine
 10
-124.0500001546348
 20
157.8749994804487
 30
0.0
 11
-124.0500001546305
 21
157.0749994803643
 31
0.0
  0
LINE
  5
182
330
6A
100
AcDbEntity
  8
0
  6
Continuous
 62
     7
100
AcDbLine
 10
-114.2500001546661
 20
157.0749994804056
 30
0.0
 11
-114.2500001546616
 21
157.8749994804473
 31
0.0
  0
LINE
  5
183
330
6A
100
AcDbEntity
  8
0
  6
Continuous
 62
     7
100
AcDbLine
 10
-114.8065667852776
 20
157.8749994804473
 30
0.0
 11
-114.2500001546616
 21
157.8749994804473
 31
0.0
  0
LINE
  5
184
330
6A
100
AcDbEntity
  8
0
  6
Continuous
 62
     7
100
AcDbLine
 10
-114.3514318854864
 20
158.5249994803827
 30
0.0
 11
-89.25021043860974
 21
158.524999480379
 31
0.0
  0
LINE
  5
185
330
6A
100
AcDbEntity
  8
0
  6
Continuous
 62
     7
100
AcDbLine
 10
-89.08247482624259
 20
157.5737235514604
 30
0.0
 11
-89.55128734961761
 21
157.1803431360063
 31
0.0
  0
LINE
  5
186
330
6A
100
AcDbEntity
  8
0
  6
Continuous
 62
     7
100
AcDbLine
 10
-159.1119561482066
 20
157.5690503245534
 30
0.0
 11
-158.6431436248335
 21
157.1756699091008
 31
0.0
  0
LINE
  5
187
330
6A
100
AcDbEntity
  8
0
  6
Continuous
 62
     7
100
AcDbLine
 10
-89.55128734961761
 20
157.1803431360063
 30
0.0
 11
-89.59857307179229
 21
157.4485137925042
 31
0.0
  0
LINE
  5
188
330
6A
100
AcDbEntity
  8
0
  6
Continuous
 62
     7
100
AcDbLine
 10
-160.2000001547662
 20
151.288489363835
 30
0.0
 11
-159.6456344384581
 21
151.4902619834641
 31
0.0
  0
LINE
  5
189
330
6A
100
AcDbEntity
  8
0
  6
Continuous
 62
     7
100
AcDbLine
 10
-88.54753407022432
 20
151.4877754111977
 30
0.0
 11
-88.00000015476641
 21
151.2884893637242
 31
0.0
  0
LINE
  5
18A
330
6A
100
AcDbEntity
  8
0
  6
Continuous
 62
     7
100
AcDbLine
 10
-90.65231736751562
 20
157.2627102424009
 30
0.0
 11
-89.59857307179229
 21
157.4485137925042
 31
0.0
  0
LINE
  5
18B
330
6A
100
AcDbEntity
  8
0
  6
Continuous
 62
     7
100
AcDbLine
 10
-158.6431436248335
 20
157.1756699091008
 30
0.0
 11
-158.5952266697735
 21
157.4474204651846
 31
0.0
  0
LINE
  5
18C
330
6A
100
AcDbEntity
  8
0
  6
Continuous
 62
     7
100
AcDbLine
 10
-157.5476829420191
 20
157.2627102425095
 30
0.0
 11
-158.5952266697735
 21
157.4474204651846
 31
0.0
  0
LINE
  5
18D
330
6A
100
AcDbEntity
  8
0
  6
Continuous
 62
     7
100
AcDbLine
 10
-123.493433524019
 20
157.8749994804486
 30
0.0
 11
-123.9485684238022
 21
158.5249994803731
 31
0.0
  0
LINE
  5
18E
330
6A
100
AcDbEntity
  8
0
  6
Continuous
 62
     7
100
AcDbLine
 10
-129.8000001547748
 20
130.4749994804274
 30
0.0
 11
-128.8000001547425
 21
129.4749994803948
 31
0.0
  0
LINE
  5
18F
330
6A
100
AcDbEntity
  8
0
  6
Continuous
 62
     7
100
AcDbLine
 10
-114.3514318854864
 20
158.5249994803827
 30
0.0
 11
-114.8065667852776
 21
157.8749994804473
 31
0.0
  0
LINE
  5
190
330
6A
100
AcDbEntity
  8
0
  6
Continuous
 62
     7
100
AcDbLine
 10
-132.3000001548073
 20
129.4749994803954
 30
0.0
 11
-131.3000001547748
 21
130.4749994804276
 31
0.0
  0
LINE
  5
191
330
6A
100
AcDbEntity
  8
0
  6
Continuous
 62
     7
100
AcDbLine
 10
-132.3000001548073
 20
129.4749994803954
 30
0.0
 11
-160.2000001547694
 21
129.4749994803995
 31
0.0
  0
LINE
  5
192
330
6A
100
AcDbEntity
  8
0
  6
Continuous
 62
     7
100
AcDbLine
 10
-160.2000001547694
 20
129.4749994803995
 30
0.0
 11
-160.2000001547692
 21
137.4749994803854
 31
0.0
  0
LINE
  5
193
330
6A
100
AcDbEntity
  8
0
  6
Continuous
 62
     7
100
AcDbLine
 10
-131.3000001547748
 20
130.4749994804276
 30
0.0
 11
-129.8000001547748
 21
130.4749994804274
 31
0.0
  0
LINE
  5
194
330
6A
100
AcDbEntity
  8
0
  6
Continuous
 62
     7
100
AcDbLine
 10
-88.00000015476843
 20
134.4749994803854
 30
0.0
 11
-88.00000015476874
 21
132.47499948038
 31
0.0
  0
LINE
  5
195
330
6A
100
AcDbEntity
  8
0
  6
Continuous
 62
     7
100
AcDbLine
 10
-93.40729111474037
 20
129.4749994803896
 30
0.0
 11
-128.8000001547425
 21
129.4749994803948
 31
0.0
  0
LINE
  5
196
330
6A
100
AcDbEntity
  8
0
  6
Continuous
 62
     7
100
AcDbLine
 10
-88.00000015476712
 20
146.4749994803841
 30
0.0
 11
-88.00000015476641
 21
151.2884893637242
 31
0.0
  0
LINE
  5
197
330
6A
100
AcDbEntity
  8
0
  6
Continuous
 62
     7
100
AcDbLine
 10
-158.6458148826574
 20
151.0348945320386
 30
0.0
 11
-159.6933586104108
 21
151.2196047547139
 31
0.0
  0
LINE
  5
198
330
6A
100
AcDbEntity
  8
0
  6
Continuous
 62
     7
100
AcDbLine
 10
-89.55399264377188
 20
151.0338012045985
 30
0.0
 11
-88.50024834804967
 21
151.219604754702
 31
0.0
  0
LINE
  5
199
330
6A
100
AcDbEntity
  8
0
  6
Continuous
 62
     7
100
AcDbLine
 10
-124.0500001546305
 20
157.0749994803643
 30
0.0
 11
-122.41615239153
 21
157.0749994803641
 31
0.0
  0
LINE
  5
19A
330
6A
100
AcDbEntity
  8
0
  6
Continuous
 62
     7
100
AcDbLine
 10
-121.7161523915399
 20
156.3749994803738
 30
0.0
 11
-122.3250001546484
 21
156.3749994803739
 31
0.0
  0
LINE
  5
19B
330
6A
100
AcDbEntity
  8
0
  6
Continuous
 62
     7
100
AcDbLine
 10
-122.41615239153
 20
157.0749994803641
 30
0.0
 11
-121.7161523915399
 21
156.3749994803738
 31
0.0
  0
LINE
  5
19C
330
6A
100
AcDbEntity
  8
0
  6
Continuous
 62
     7
100
AcDbLine
 10
-122.3250001546486
 20
155.3249994803742
 30
0.0
 11
-122.3250001546484
 21
156.3749994803739
 31
0.0
  0
LINE
  5
19D
330
6A
100
AcDbEntity
  8
0
  6
Continuous
 62
     7
100
AcDbLine
 10
-122.3250001546486
 20
155.3249994803742
 30
0.0
 11
-115.9750001546486
 21
155.3249994803728
 31
0.0
  0
LINE
  5
19E
330
6A
100
AcDbEntity
  8
0
  6
Continuous
 62
     7
100
AcDbLine
 10
-115.9750001546486
 20
155.3249994803728
 30
0.0
 11
-115.9750001546484
 21
156.3749994803725
 31
0.0
  0
LINE
  5
19F
330
6A
100
AcDbEntity
  8
0
  6
Continuous
 62
     7
100
AcDbLine
 10
-116.5838479177569
 20
156.3749994803727
 30
0.0
 11
-115.9750001546484
 21
156.3749994803725
 31
0.0
  0
LINE
  5
1A0
330
6A
100
AcDbEntity
  8
0
  6
Continuous
 62
     7
100
AcDbLine
 10
-116.5838479177569
 20
156.3749994803727
 30
0.0
 11
-115.8838479177234
 21
157.0749994804059
 31
0.0
  0
LINE
  5
1A1
330
6A
100
AcDbEntity
  8
0
  6
Continuous
 62
     7
100
AcDbLine
 10
-115.8838479177234
 20
157.0749994804059
 30
0.0
 11
-114.2500001546661
 21
157.0749994804056
 31
0.0
  0
LINE
  5
1A2
330
6A
100
AcDbEntity
  8
0
  6
Continuous
 62
     7
100
AcDbLine
 10
-159.6456344384581
 20
151.4902619834641
 30
0.0
 11
-159.6933586104108
 21
151.2196047547139
 31
0.0
  0
LINE
  5
1A3
330
6A
100
AcDbEntity
  8
0
  6
Continuous
 62
     7
100
AcDbLine
 10
-88.54753407022432
 20
151.4877754111977
 30
0.0
 11
-88.50024834804967
 21
151.219604754702
 31
0.0
  0
LINE
  5
1A4
330
6A
100
AcDbEntity
  8
0
  6
Continuous
 62
     7
100
AcDbLine
 10
-90.65231736751562
 20
157.2627102424009
 30
0.0
 11
-89.55399264377188
 21
151.0338012045985
 31
0.0
  0
LINE
  5
1A5
330
6A
100
AcDbEntity
  8
0
  6
Continuous
 62
     7
100
AcDbLine
 10
-88.00000015476874
 20
132.47499948038
 30
0.0
 11
-93.40729111474037
 21
129.4749994803896
 31
0.0
  0
ARC
  5
1A6
330
6A
100
AcDbEntity
  8
0
  6
Continuous
 62
     7
100
AcDbCircle
 10
-174.5090881760222
 20
141.974999480389
 30
0.0
 40
14.99999999999993
100
AcDbArc
 50
342.5423968762635
 51
17.45760312378057
  0
ARC
  5
1A7
330
6A
100
AcDbEntity
  8
0
  6
Continuous
 62
     7
100
AcDbCircle
 10
-74.25227306990054
 20
140.4749994803832
 30
0.0
 40
14.9999999999995
100
AcDbArc
 50
156.4218215217935
 51
203.5781784781935
  0
ENDBLK
  5
6C
330
6A
100
AcDbEntity
  8
0
100
AcDbBlockEnd
  0
BLOCK
  5
6F
330
6D
100
AcDbEntity
  8
0
100
AcDbBlockBegin
  2
Vordans1
 70
     0
 10
-124.0999994277878
 20
144.0
 30
0.0
  3
Vordans1
  1

  0
INSERT
  5
6E
330
6D
100
AcDbEntity
  8
0
100
AcDbBlockReference
  2
D_ST_2_5_QUATTRO_0_8_OG-select__6
 10
-160.2000001547726
 20
129.4749994803896
 30
0.0
  0
MTEXT
  5
1A8
330
6D
100
AcDbEntity
  8
1
 62
     6
100
AcDbMText
 10
-124.0999994277876
 20
124.4749996662085
 30
0.0
 40
5.0
 41
0.0
 71
     2
 72
     1
  1
 
  7
CONVERTER_11
 73
     1
 44
1.32052821128451
  0
DIMENSION
  5
1B3
330
6D
100
AcDbEntity
  8
1
100
AcDbDimension
  2
*D18
 10
-88.00000015476876
 20
115.8429165939007
 30
0.0
 11
-122.6551214120508
 21
119.7679165939007
 31
0.0
 70
    32
  1
<>
 71
     5
 42
-1.0
 53
0.00013888888889
  3
ME10_DIM_11
100
AcDbAlignedDimension
 13
-160.2000001547694
 23
129.4749994803995
 33
0.0
 14
-88.00000015476874
 24
132.47499948038
 34
0.0
100
AcDbRotatedDimension
  0
DIMENSION
  5
1BE
330
6D
100
AcDbEntity
  8
1
100
AcDbDimension
  2
*D19
 10
-170.9427150854462
 20
158.524999480374
 30
0.0
 11
-174.3677150854462
 21
144.266357096999
 31
0.0
 70
    32
  1
<>
 71
     5
 42
-1.0
 53
90.0
  3
ME10_DIM_12
100
AcDbAlignedDimension
 13
-160.2000001547694
 23
129.4749994803995
 33
0.0
 14
-158.9433965198493
 24
158.5249994803741
 34
0.0
 50
90.0
100
AcDbRotatedDimension
  0
ENDBLK
  5
70
330
6D
100
AcDbEntity
  8
0
100
AcDbBlockEnd
  0
BLOCK
  5
72
330
71
100
AcDbEntity
  8
0
100
AcDbBlockBegin
  2
_rahmen
 70
     0
 10
65.13450035266486
 20
-5.12611237589113
 30
0.0
  3
_rahmen
  1

  0
LINE
  5
1BF
330
71
100
AcDbEntity
  8
1
  6
DOT_CENTER
 62
     2
100
AcDbLine
 10
-60.42364928752255
 20
20.9988876241089
 30
0.0
 11
-54.92364928752255
 21
20.9988876241089
 31
0.0
  0
LINE
  5
1C0
330
71
100
AcDbEntity
  8
1
  6
PHANTOM
 62
     2
100
AcDbLine
 10
-51.67364928752255
 20
23.7488876241089
 30
0.0
 11
-51.67364928752255
 21
18.2488876241089
 31
0.0
  0
LINE
  5
1C1
330
71
100
AcDbEntity
  8
1
  6
PHANTOM
 62
     2
100
AcDbLine
 10
-48.92364928752255
 20
20.9988876241089
 30
0.0
 11
-54.42364928752255
 21
20.9988876241089
 31
0.0
  0
LINE
  5
1C2
330
71
100
AcDbEntity
  8
1
  6
Continuous
 62
     7
100
AcDbLine
 10
-0.11030417408514
 20
8.3738876241089
 30
0.0
 11
-0.11030417408514
 21
16.87388762410899
 31
0.0
  0
LINE
  5
1C3
330
71
100
AcDbEntity
  8
1
  6
Continuous
 62
     6
100
AcDbLine
 10
-28.01030417408524
 20
16.87388762410899
 30
0.0
 11
65.13450035266655
 21
16.87388762410899
 31
0.0
  0
LINE
  5
1C4
330
71
100
AcDbEntity
  8
1
  6
Continuous
 62
     7
100
AcDbLine
 10
-64.41030417408516
 20
16.87388762410899
 30
0.0
 11
-64.41030417408516
 21
25.37388762410899
 31
0.0
  0
LINE
  5
1C5
330
71
100
AcDbEntity
  8
1
  6
Continuous
 62
     7
100
AcDbLine
 10
-28.01030417408524
 20
16.87388762410899
 30
0.0
 11
-28.01030417408524
 21
25.37388762410899
 31
0.0
  0
LINE
  5
1C6
330
71
100
AcDbEntity
  8
1
  6
Continuous
 62
     7
100
AcDbLine
 10
29.71609207098774
 20
25.37388762410899
 30
0.0
 11
29.71609207098774
 21
16.87388762410899
 31
0.0
  0
LINE
  5
1C7
330
71
100
AcDbEntity
  8
1
  6
Continuous
 62
     7
100
AcDbLine
 10
56.21609207098734
 20
25.37388762410899
 30
0.0
 11
56.21609207098734
 21
16.87388762410899
 31
0.0
  0
LINE
  5
1C8
330
71
100
AcDbEntity
  8
1
  6
Continuous
 62
     6
100
AcDbLine
 10
-133.4103041740851
 20
-0.12611237589101
 30
0.0
 11
-178.3654996473351
 21
-0.12611237589101
 31
0.0
  0
LINE
  5
1C9
330
71
100
AcDbEntity
  8
1
  6
Continuous
 62
     7
100
AcDbLine
 10
65.13450035266615
 20
8.37388762410899
 30
0.0
 11
-28.01030417408524
 21
8.37388762410899
 31
0.0
  0
LINE
  5
1CA
102
{ACAD_REACTORS
330
2DC
330
2DD
102
}
330
71
100
AcDbEntity
  8
0
  6
Continuous
 62
     2
100
AcDbLine
 10
-50.70287523231775
 20
9.17417673977229
 30
0.0
 11
-50.70287523231775
 21
10.04669374657559
 31
0.0
  0
LINE
  5
1CB
102
{ACAD_REACTORS
330
2DC
330
2DD
102
}
330
71
100
AcDbEntity
  8
0
  6
Continuous
 62
     2
100
AcDbLine
 10
-50.70287523231775
 20
8.21440803228938
 30
0.0
 11
-50.70287523231775
 21
7.34189102548618
 31
0.0
  0
LINE
  5
1CC
102
{ACAD_REACTORS
330
2DE
330
2DF
102
}
330
71
100
AcDbEntity
  8
0
  6
Continuous
 62
     2
100
AcDbLine
 10
-35.36983109602724
 20
9.43593184181279
 30
0.0
 11
-34.26619179645914
 21
9.43593184181279
 31
0.0
  0
LINE
  5
1CD
102
{ACAD_REACTORS
330
2DE
330
2DF
102
}
330
71
100
AcDbEntity
  8
0
  6
Continuous
 62
     2
100
AcDbLine
 10
-34.60017375306583
 20
8.2144080322889
 30
0.0
 11
-34.60017375306583
 21
7.34189102548558
 31
0.0
  0
LINE
  5
1CE
102
{ACAD_REACTORS
330
2E8
330
2E9
102
}
330
71
100
AcDbEntity
  8
0
  6
Continuous
 62
     2
100
AcDbLine
 10
-36.46093036844576
 20
10.52657810029959
 30
0.0
 11
-35.06297732150546
 21
12.10743709407458
 31
0.0
  0
LINE
  5
1CF
102
{ACAD_REACTORS
330
2E8
330
2E9
102
}
330
71
100
AcDbEntity
  8
0
  6
Continuous
 62
     2
100
AcDbLine
 10
-36.36550695227294
 20
13.58038762411078
 30
0.0
 11
-35.06297732150546
 21
12.10743709407458
 31
0.0
  0
LINE
  5
1D0
102
{ACAD_REACTORS
330
2E8
330
2E9
102
}
330
71
100
AcDbEntity
  8
0
  6
Continuous
 62
     2
100
AcDbLine
 10
-33.76044769073906
 20
13.58038762411078
 30
0.0
 11
-32.35772347299184
 21
13.58038762411078
 31
0.0
  0
LINE
  5
1D1
102
{ACAD_REACTORS
330
2E8
330
2E9
102
}
330
71
100
AcDbEntity
  8
0
  6
Continuous
 62
     2
100
AcDbLine
 10
-35.05820615069754
 20
10.52657810029959
 30
0.0
 11
-34.36161521263185
 21
11.3143098855933
 31
0.0
  0
LINE
  5
1D2
102
{ACAD_REACTORS
330
2E8
330
2E9
102
}
330
71
100
AcDbEntity
  8
0
  6
Continuous
 62
     2
100
AcDbLine
 10
-35.05820615069754
 20
10.52657810029959
 30
0.0
 11
-36.46093036844576
 21
10.52657810029959
 31
0.0
  0
LINE
  5
1D3
102
{ACAD_REACTORS
330
2EA
330
2EB
102
}
330
71
100
AcDbEntity
  8
0
  6
Continuous
 62
     2
100
AcDbLine
 10
-36.58020963866264
 20
10.52657810029959
 30
0.0
 11
-37.82071404891553
 21
10.52657810029959
 31
0.0
  0
LINE
  5
1D4
102
{ACAD_REACTORS
330
2EC
330
2ED
102
}
330
71
100
AcDbEntity
  8
0
  6
Continuous
 62
     2
100
AcDbLine
 10
-38.68869365707064
 20
8.38891143364978
 30
0.0
 11
-38.98885889426074
 21
9.15672639963648
 31
0.0
  0
LINE
  5
1D5
102
{ACAD_REACTORS
330
2EC
330
2ED
102
}
330
71
100
AcDbEntity
  8
0
  6
Continuous
 62
     2
100
AcDbLine
 10
-39.28902413145315
 20
8.38891143364978
 30
0.0
 11
-38.68869365707064
 21
8.38891143364978
 31
0.0
  0
LINE
  5
1D6
102
{ACAD_REACTORS
330
2EC
330
2ED
102
}
330
71
100
AcDbEntity
  8
0
  6
Continuous
 62
     2
100
AcDbLine
 10
-41.00706414632694
 20
7.1673876241253
 30
0.0
 11
-39.76655973607396
 21
7.1673876241253
 31
0.0
  0
LINE
  5
1D7
102
{ACAD_REACTORS
330
2EC
330
2ED
102
}
330
71
100
AcDbEntity
  8
0
  6
Continuous
 62
     2
100
AcDbLine
 10
-39.60911109938763
 20
10.22119714793638
 30
0.0
 11
-38.36860668913494
 21
10.22119714793638
 31
0.0
  0
LINE
  5
1D8
102
{ACAD_REACTORS
330
2EC
330
2ED
102
}
330
71
100
AcDbEntity
  8
0
  6
Continuous
 62
     2
100
AcDbLine
 10
-38.36860668913494
 20
10.22119714793638
 30
0.0
 11
-36.97065364219463
 21
7.1673876241253
 31
0.0
  0
LINE
  5
1D9
102
{ACAD_REACTORS
330
2EC
330
2ED
102
}
330
71
100
AcDbEntity
  8
0
  6
Continuous
 62
     2
100
AcDbLine
 10
-38.21115805244855
 20
7.1673876241253
 30
0.0
 11
-38.42263810592434
 21
7.70834816834318
 31
0.0
  0
LINE
  5
1DA
102
{ACAD_REACTORS
330
2EE
330
2EF
102
}
330
71
100
AcDbEntity
  8
0
  6
Continuous
 62
     2
100
AcDbLine
 10
-42.35347724803455
 20
7.1673876241253
 30
0.0
 11
-41.16068454586804
 21
7.1673876241253
 31
0.0
  0
LINE
  5
1DB
102
{ACAD_REACTORS
330
2EE
330
2EF
102
}
330
71
100
AcDbEntity
  8
0
  6
Continuous
 62
     2
100
AcDbLine
 10
-42.35347724803455
 20
9.43593184181279
 30
0.0
 11
-42.35347724803455
 21
7.1673876241253
 31
0.0
  0
LINE
  5
1DC
102
{ACAD_REACTORS
330
2EE
330
2EF
102
}
330
71
100
AcDbEntity
  8
0
  6
Continuous
 62
     2
100
AcDbLine
 10
-43.16457628550916
 20
10.22119714793638
 30
0.0
 11
-43.16457628550916
 21
9.43593184181279
 31
0.0
  0
LINE
  5
1DD
102
{ACAD_REACTORS
330
2F0
330
2F1
102
}
330
71
100
AcDbEntity
  8
0
  6
Continuous
 62
     2
100
AcDbLine
 10
-41.68536240393655
 20
10.52657810029959
 30
0.0
 11
-40.49256970177004
 21
10.52657810029959
 31
0.0
  0
LINE
  5
1DE
102
{ACAD_REACTORS
330
2F0
330
2F1
102
}
330
71
100
AcDbEntity
  8
0
  6
Continuous
 62
     2
100
AcDbLine
 10
-39.25206529151603
 20
12.2716121139056
 30
0.0
 11
-40.49256970177004
 21
13.58038762411078
 31
0.0
  0
LINE
  5
1DF
102
{ACAD_REACTORS
330
2F0
330
2F1
102
}
330
71
100
AcDbEntity
  8
0
  6
Continuous
 62
     2
100
AcDbLine
 10
-38.05927258934943
 20
13.58038762411078
 30
0.0
 11
-39.25206529151603
 21
13.58038762411078
 31
0.0
  0
LINE
  5
1E0
102
{ACAD_REACTORS
330
2F0
330
2F1
102
}
330
71
100
AcDbEntity
  8
0
  6
Continuous
 62
     2
100
AcDbLine
 10
-38.05927258934943
 20
10.52657810029959
 30
0.0
 11
-38.05927258934943
 21
13.58038762411078
 31
0.0
  0
LINE
  5
1E1
102
{ACAD_REACTORS
330
2F0
330
2F1
102
}
330
71
100
AcDbEntity
  8
0
  6
Continuous
 62
     2
100
AcDbLine
 10
-39.25206529151603
 20
10.52657810029959
 30
0.0
 11
-38.05927258934943
 21
10.52657810029959
 31
0.0
  0
LINE
  5
1E2
102
{ACAD_REACTORS
330
2F0
330
2F1
102
}
330
71
100
AcDbEntity
  8
0
  6
Continuous
 62
     2
100
AcDbLine
 10
-40.49256970177004
 20
11.83535361050429
 30
0.0
 11
-39.25206529151603
 21
10.52657810029959
 31
0.0
  0
LINE
  5
1E3
102
{ACAD_REACTORS
330
2F2
330
2F3
102
}
330
71
100
AcDbEntity
  8
0
  6
Continuous
 62
     2
100
AcDbLine
 10
-44.50050411193575
 20
8.91242163773128
 30
0.0
 11
-45.74100852218865
 21
10.22119714793638
 31
0.0
  0
LINE
  5
1E4
102
{ACAD_REACTORS
330
2F2
330
2F3
102
}
330
71
100
AcDbEntity
  8
0
  6
Continuous
 62
     2
100
AcDbLine
 10
-44.50050411193575
 20
10.22119714793638
 30
0.0
 11
-44.50050411193575
 21
8.91242163773128
 31
0.0
  0
LINE
  5
1E5
102
{ACAD_REACTORS
330
2F2
330
2F3
102
}
330
71
100
AcDbEntity
  8
0
  6
Continuous
 62
     2
100
AcDbLine
 10
-43.30771140976935
 20
10.22119714793638
 30
0.0
 11
-44.50050411193575
 21
10.22119714793638
 31
0.0
  0
LINE
  5
1E6
102
{ACAD_REACTORS
330
2F2
330
2F3
102
}
330
71
100
AcDbEntity
  8
0
  6
Continuous
 62
     2
100
AcDbLine
 10
-43.30771140976935
 20
7.1673876241253
 30
0.0
 11
-43.30771140976935
 21
10.22119714793638
 31
0.0
  0
LINE
  5
1E7
102
{ACAD_REACTORS
330
2F2
330
2F3
102
}
330
71
100
AcDbEntity
  8
0
  6
Continuous
 62
     2
100
AcDbLine
 10
-45.74100852218865
 20
8.47616313432988
 30
0.0
 11
-44.50050411193575
 21
7.1673876241253
 31
0.0
  0
LINE
  5
1E8
102
{ACAD_REACTORS
330
2F2
330
2F3
102
}
330
71
100
AcDbEntity
  8
0
  6
Continuous
 62
     2
100
AcDbLine
 10
-45.74100852218865
 20
7.1673876241253
 30
0.0
 11
-45.74100852218865
 21
8.47616313432988
 31
0.0
  0
LINE
  5
1E9
102
{ACAD_REACTORS
330
2E2
330
2E3
102
}
330
71
100
AcDbEntity
  8
0
  6
Continuous
 62
     2
100
AcDbLine
 10
-43.25984877079713
 20
12.8823740186678
 30
0.0
 11
-41.92392094436946
 21
12.8823740186678
 31
0.0
  0
LINE
  5
1EA
102
{ACAD_REACTORS
330
2E2
330
2E3
102
}
330
71
100
AcDbEntity
  8
0
  6
Continuous
 62
     2
100
AcDbLine
 10
-43.25984877079713
 20
11.22459170574209
 30
0.0
 11
-43.25984877079713
 21
11.7044760594838
 31
0.0
  0
LINE
  5
1EB
102
{ACAD_REACTORS
330
2E2
330
2E3
102
}
330
71
100
AcDbEntity
  8
0
  6
Continuous
 62
     2
100
AcDbLine
 10
-41.92392094436946
 20
11.22459170574209
 30
0.0
 11
-43.25984877079713
 21
11.22459170574209
 31
0.0
  0
LINE
  5
1EC
102
{ACAD_REACTORS
330
2E2
330
2E3
102
}
330
71
100
AcDbEntity
  8
0
  6
Continuous
 62
     2
100
AcDbLine
 10
-41.92392094436946
 20
10.52657810029959
 30
0.0
 11
-41.92392094436946
 21
11.22459170574209
 31
0.0
  0
LINE
  5
1ED
102
{ACAD_REACTORS
330
2E2
330
2E3
102
}
330
71
100
AcDbEntity
  8
0
  6
Continuous
 62
     2
100
AcDbLine
 10
-45.07424066815045
 20
10.52657810029959
 30
0.0
 11
-41.92392094436946
 21
10.52657810029959
 31
0.0
  0
LINE
  5
1EE
102
{ACAD_REACTORS
330
2E2
330
2E3
102
}
330
71
100
AcDbEntity
  8
0
  6
Continuous
 62
     2
100
AcDbLine
 10
-45.07424066815045
 20
13.58038762411078
 30
0.0
 11
-41.92392094436946
 21
13.58038762411078
 31
0.0
  0
LINE
  5
1EF
102
{ACAD_REACTORS
330
2E2
330
2E3
102
}
330
71
100
AcDbEntity
  8
0
  6
Continuous
 62
     2
100
AcDbLine
 10
-41.92392094436946
 20
12.8823740186678
 30
0.0
 11
-41.92392094436946
 21
13.58038762411078
 31
0.0
  0
LINE
  5
1F0
102
{ACAD_REACTORS
330
2F4
330
2F5
102
}
330
71
100
AcDbEntity
  8
0
  6
Continuous
 62
     2
100
AcDbLine
 10
-47.93559616329046
 20
12.51155429077619
 30
0.0
 11
-47.93559616329046
 21
13.58038762411078
 31
0.0
  0
LINE
  5
1F1
102
{ACAD_REACTORS
330
2F4
330
2F5
102
}
330
71
100
AcDbEntity
  8
0
  6
Continuous
 62
     2
100
AcDbLine
 10
-47.93559616329046
 20
13.58038762411078
 30
0.0
 11
-46.74280346112406
 21
13.58038762411078
 31
0.0
  0
LINE
  5
1F2
102
{ACAD_REACTORS
330
2F4
330
2F5
102
}
330
71
100
AcDbEntity
  8
0
  6
Continuous
 62
     2
100
AcDbLine
 10
-47.93559616329046
 20
11.66085020914341
 30
0.0
 11
-48.98525374119794
 21
11.66085020914341
 31
0.0
  0
LINE
  5
1F3
102
{ACAD_REACTORS
330
2F4
330
2F5
102
}
330
71
100
AcDbEntity
  8
0
  6
Continuous
 62
     2
100
AcDbLine
 10
-48.98525374119794
 20
11.66085020914341
 30
0.0
 11
-48.98525374119794
 21
10.52657810029959
 31
0.0
  0
LINE
  5
1F4
102
{ACAD_REACTORS
330
2F4
330
2F5
102
}
330
71
100
AcDbEntity
  8
0
  6
Continuous
 62
     2
100
AcDbLine
 10
-50.17804644336454
 20
13.58038762411078
 30
0.0
 11
-50.17804644336454
 21
10.52657810029959
 31
0.0
  0
LINE
  5
1F5
102
{ACAD_REACTORS
330
2E6
330
2E7
102
}
330
71
100
AcDbEntity
  8
0
  6
Continuous
 62
     2
100
AcDbLine
 10
-52.13422647491814
 20
12.21155412932848
 30
0.0
 11
-52.13422647491814
 21
12.91728177867068
 31
0.0
  0
LINE
  5
1F6
102
{ACAD_REACTORS
330
2E6
330
2E7
102
}
330
71
100
AcDbEntity
  8
0
  6
Continuous
 62
     2
100
AcDbLine
 10
-53.37473088517226
 20
10.52657810029959
 30
0.0
 11
-52.13422647491814
 21
10.52657810029959
 31
0.0
  0
LINE
  5
1F7
102
{ACAD_REACTORS
330
2E6
330
2E7
102
}
330
71
100
AcDbEntity
  8
0
  6
Continuous
 62
     2
100
AcDbLine
 10
-52.13422647491814
 20
10.52657810029959
 30
0.0
 11
-52.13422647491814
 21
11.4696563414434
 31
0.0
  0
LINE
  5
1F8
102
{ACAD_REACTORS
330
2E0
330
2E1
102
}
330
71
100
AcDbEntity
  8
0
  6
Continuous
 62
     2
100
AcDbLine
 10
-57.67967673438363
 20
7.87994317968219
 30
0.0
 11
-59.15550999539326
 21
7.87994317968219
 31
0.0
  0
LINE
  5
1F9
102
{ACAD_REACTORS
330
2E0
330
2E1
102
}
330
71
100
AcDbEntity
  8
0
  6
Continuous
 62
     2
100
AcDbLine
 10
-60.17364928752255
 20
13.1561430087088
 30
0.0
 11
-60.17364928752255
 21
7.59163223950858
 31
0.0
  0
LINE
  5
1FA
102
{ACAD_REACTORS
330
2E0
330
2E1
102
}
330
71
100
AcDbEntity
  8
0
  6
Continuous
 62
     2
100
AcDbLine
 10
-59.74940467213975
 20
13.58038762409259
 30
0.0
 11
-54.27609258142294
 21
13.58038762409259
 31
0.0
  0
LINE
  5
1FB
102
{ACAD_REACTORS
330
2E0
330
2E1
102
}
330
71
100
AcDbEntity
  8
0
  6
Continuous
 62
     2
100
AcDbLine
 10
-53.85184796603906
 20
13.1561430087088
 30
0.0
 11
-53.85184796603906
 21
7.59163223950858
 31
0.0
  0
LINE
  5
1FC
102
{ACAD_REACTORS
330
2E0
330
2E1
102
}
330
71
100
AcDbEntity
  8
0
  6
Continuous
 62
     2
100
AcDbLine
 10
-54.27609258142294
 20
7.1673876241253
 30
0.0
 11
-59.74940467213975
 21
7.1673876241253
 31
0.0
  0
LINE
  5
1FD
102
{ACAD_REACTORS
330
2E0
330
2E1
102
}
330
71
100
AcDbEntity
  8
0
  6
Continuous
 62
     2
100
AcDbLine
 10
-57.36395981130704
 20
8.19566010275889
 30
0.0
 11
-57.36395981130704
 21
9.7264310342905
 31
0.0
  0
LINE
  5
1FE
102
{ACAD_REACTORS
330
2E0
330
2E1
102
}
330
71
100
AcDbEntity
  8
0
  6
Continuous
 62
     2
100
AcDbLine
 10
-57.36395981130704
 20
11.94809052641548
 30
0.0
 11
-57.36395981130704
 21
12.55211514547599
 31
0.0
  0
LINE
  5
1FF
102
{ACAD_REACTORS
330
2E0
330
2E1
102
}
330
71
100
AcDbEntity
  8
0
  6
Continuous
 62
     2
100
AcDbLine
 10
-59.15550999539326
 20
12.86783206855219
 30
0.0
 11
-57.67967673438363
 21
12.86783206855219
 31
0.0
  0
LINE
  5
200
102
{ACAD_REACTORS
330
2E0
330
2E1
102
}
330
71
100
AcDbEntity
  8
0
  6
Continuous
 62
     2
100
AcDbLine
 10
-59.47122691846894
 20
12.55211514547599
 30
0.0
 11
-59.47122691846894
 21
8.19566010275889
 31
0.0
  0
LINE
  5
201
102
{ACAD_REACTORS
330
2E6
330
2E7
102
}
330
71
100
AcDbEntity
  8
0
  6
Continuous
 62
     2
100
AcDbLine
 10
-52.13422647491814
 20
11.4696563414434
 30
0.0
 11
-51.37545888713785
 21
11.4696563414434
 31
0.0
  0
LINE
  5
202
102
{ACAD_REACTORS
330
2E6
330
2E7
102
}
330
71
100
AcDbEntity
  8
0
  6
Continuous
 62
     2
100
AcDbLine
 10
-53.37473088517226
 20
13.58038762411078
 30
0.0
 11
-51.37545888713785
 21
13.58038762411078
 31
0.0
  0
LINE
  5
203
102
{ACAD_REACTORS
330
2E6
330
2E7
102
}
330
71
100
AcDbEntity
  8
0
  6
Continuous
 62
     2
100
AcDbLine
 10
-53.37473088517226
 20
13.58038762411078
 30
0.0
 11
-53.37473088517226
 21
10.52657810029959
 31
0.0
  0
LINE
  5
204
102
{ACAD_REACTORS
330
2E6
330
2E7
102
}
330
71
100
AcDbEntity
  8
0
  6
Continuous
 62
     2
100
AcDbLine
 10
-52.13422647491814
 20
12.21155412932848
 30
0.0
 11
-51.81693141337624
 21
12.21155412932848
 31
0.0
  0
LINE
  5
205
102
{ACAD_REACTORS
330
2E6
330
2E7
102
}
330
71
100
AcDbEntity
  8
0
  6
Continuous
 62
     2
100
AcDbLine
 10
-52.13422647491814
 20
12.91728177867068
 30
0.0
 11
-51.81693141337624
 21
12.91728177867068
 31
0.0
  0
LINE
  5
206
102
{ACAD_REACTORS
330
2F4
330
2F5
102
}
330
71
100
AcDbEntity
  8
0
  6
Continuous
 62
     2
100
AcDbLine
 10
-48.98525374119794
 20
12.51155429077619
 30
0.0
 11
-47.93559616329046
 21
12.51155429077619
 31
0.0
  0
LINE
  5
207
102
{ACAD_REACTORS
330
2F4
330
2F5
102
}
330
71
100
AcDbEntity
  8
0
  6
Continuous
 62
     2
100
AcDbLine
 10
-48.98525374119794
 20
13.58038762411078
 30
0.0
 11
-48.98525374119794
 21
12.51155429077619
 31
0.0
  0
LINE
  5
208
102
{ACAD_REACTORS
330
2F4
330
2F5
102
}
330
71
100
AcDbEntity
  8
0
  6
Continuous
 62
     2
100
AcDbLine
 10
-50.17804644336454
 20
13.58038762411078
 30
0.0
 11
-48.98525374119794
 21
13.58038762411078
 31
0.0
  0
LINE
  5
209
102
{ACAD_REACTORS
330
2F4
330
2F5
102
}
330
71
100
AcDbEntity
  8
0
  6
Continuous
 62
     2
100
AcDbLine
 10
-48.98525374119794
 20
10.52657810029959
 30
0.0
 11
-50.17804644336454
 21
10.52657810029959
 31
0.0
  0
LINE
  5
20A
102
{ACAD_REACTORS
330
2F4
330
2F5
102
}
330
71
100
AcDbEntity
  8
0
  6
Continuous
 62
     2
100
AcDbLine
 10
-47.93559616329046
 20
10.52657810029959
 30
0.0
 11
-47.93559616329046
 21
11.66085020914341
 31
0.0
  0
LINE
  5
20B
102
{ACAD_REACTORS
330
2F4
330
2F5
102
}
330
71
100
AcDbEntity
  8
0
  6
Continuous
 62
     2
100
AcDbLine
 10
-46.74280346112406
 20
10.52657810029959
 30
0.0
 11
-47.93559616329046
 21
10.52657810029959
 31
0.0
  0
LINE
  5
20C
102
{ACAD_REACTORS
330
2F4
330
2F5
102
}
330
71
100
AcDbEntity
  8
0
  6
Continuous
 62
     2
100
AcDbLine
 10
-46.74280346112406
 20
13.58038762411078
 30
0.0
 11
-46.74280346112406
 21
10.52657810029959
 31
0.0
  0
LINE
  5
20D
102
{ACAD_REACTORS
330
2E2
330
2E3
102
}
330
71
100
AcDbEntity
  8
0
  6
Continuous
 62
     2
100
AcDbLine
 10
-43.25984877079713
 20
11.7044760594838
 30
0.0
 11
-41.92392094436946
 21
11.7044760594838
 31
0.0
  0
LINE
  5
20E
102
{ACAD_REACTORS
330
2E2
330
2E3
102
}
330
71
100
AcDbEntity
  8
0
  6
Continuous
 62
     2
100
AcDbLine
 10
-41.92392094436946
 20
11.7044760594838
 30
0.0
 11
-41.92392094436946
 21
12.40248966492609
 31
0.0
  0
LINE
  5
20F
102
{ACAD_REACTORS
330
2E2
330
2E3
102
}
330
71
100
AcDbEntity
  8
0
  6
Continuous
 62
     2
100
AcDbLine
 10
-41.92392094436946
 20
12.40248966492609
 30
0.0
 11
-43.25984877079713
 21
12.40248966492609
 31
0.0
  0
LINE
  5
210
102
{ACAD_REACTORS
330
2E2
330
2E3
102
}
330
71
100
AcDbEntity
  8
0
  6
Continuous
 62
     2
100
AcDbLine
 10
-43.25984877079713
 20
12.40248966492609
 30
0.0
 11
-43.25984877079713
 21
12.8823740186678
 31
0.0
  0
LINE
  5
211
102
{ACAD_REACTORS
330
2F2
330
2F3
102
}
330
71
100
AcDbEntity
  8
0
  6
Continuous
 62
     2
100
AcDbLine
 10
-46.93380122435625
 20
7.1673876241253
 30
0.0
 11
-45.74100852218865
 21
7.1673876241253
 31
0.0
  0
LINE
  5
212
102
{ACAD_REACTORS
330
2F2
330
2F3
102
}
330
71
100
AcDbEntity
  8
0
  6
Continuous
 62
     2
100
AcDbLine
 10
-44.50050411193575
 20
7.1673876241253
 30
0.0
 11
-43.30771140976935
 21
7.1673876241253
 31
0.0
  0
LINE
  5
213
102
{ACAD_REACTORS
330
2F2
330
2F3
102
}
330
71
100
AcDbEntity
  8
0
  6
Continuous
 62
     2
100
AcDbLine
 10
-45.74100852218865
 20
10.22119714793638
 30
0.0
 11
-46.93380122435625
 21
10.22119714793638
 31
0.0
  0
LINE
  5
214
102
{ACAD_REACTORS
330
2F2
330
2F3
102
}
330
71
100
AcDbEntity
  8
0
  6
Continuous
 62
     2
100
AcDbLine
 10
-46.93380122435625
 20
10.22119714793638
 30
0.0
 11
-46.93380122435625
 21
7.1673876241253
 31
0.0
  0
LINE
  5
215
102
{ACAD_REACTORS
330
2F0
330
2F1
102
}
330
71
100
AcDbEntity
  8
0
  6
Continuous
 62
     2
100
AcDbLine
 10
-39.25206529151603
 20
13.58038762411078
 30
0.0
 11
-39.25206529151603
 21
12.2716121139056
 31
0.0
  0
LINE
  5
216
102
{ACAD_REACTORS
330
2F0
330
2F1
102
}
330
71
100
AcDbEntity
  8
0
  6
Continuous
 62
     2
100
AcDbLine
 10
-40.49256970177004
 20
13.58038762411078
 30
0.0
 11
-41.68536240393655
 21
13.58038762411078
 31
0.0
  0
LINE
  5
217
102
{ACAD_REACTORS
330
2F0
330
2F1
102
}
330
71
100
AcDbEntity
  8
0
  6
Continuous
 62
     2
100
AcDbLine
 10
-41.68536240393655
 20
13.58038762411078
 30
0.0
 11
-41.68536240393655
 21
10.52657810029959
 31
0.0
  0
LINE
  5
218
102
{ACAD_REACTORS
330
2F0
330
2F1
102
}
330
71
100
AcDbEntity
  8
0
  6
Continuous
 62
     2
100
AcDbLine
 10
-40.49256970177004
 20
10.52657810029959
 30
0.0
 11
-40.49256970177004
 21
11.83535361050429
 31
0.0
  0
LINE
  5
219
102
{ACAD_REACTORS
330
2EE
330
2EF
102
}
330
71
100
AcDbEntity
  8
0
  6
Continuous
 62
     2
100
AcDbLine
 10
-41.16068454586804
 20
7.1673876241253
 30
0.0
 11
-41.16068454586804
 21
9.43593184181279
 31
0.0
  0
LINE
  5
21A
102
{ACAD_REACTORS
330
2EE
330
2EF
102
}
330
71
100
AcDbEntity
  8
0
  6
Continuous
 62
     2
100
AcDbLine
 10
-41.16068454586804
 20
9.43593184181279
 30
0.0
 11
-40.34958550839554
 21
9.43593184181279
 31
0.0
  0
LINE
  5
21B
102
{ACAD_REACTORS
330
2EE
330
2EF
102
}
330
71
100
AcDbEntity
  8
0
  6
Continuous
 62
     2
100
AcDbLine
 10
-40.34958550839554
 20
9.43593184181279
 30
0.0
 11
-40.34958550839554
 21
10.22119714793638
 31
0.0
  0
LINE
  5
21C
102
{ACAD_REACTORS
330
2EE
330
2EF
102
}
330
71
100
AcDbEntity
  8
0
  6
Continuous
 62
     2
100
AcDbLine
 10
-40.34958550839554
 20
10.22119714793638
 30
0.0
 11
-43.16457628550916
 21
10.22119714793638
 31
0.0
  0
LINE
  5
21D
102
{ACAD_REACTORS
330
2EE
330
2EF
102
}
330
71
100
AcDbEntity
  8
0
  6
Continuous
 62
     2
100
AcDbLine
 10
-43.16457628550916
 20
9.43593184181279
 30
0.0
 11
-42.35347724803455
 21
9.43593184181279
 31
0.0
  0
LINE
  5
21E
102
{ACAD_REACTORS
330
2EC
330
2ED
102
}
330
71
100
AcDbEntity
  8
0
  6
Continuous
 62
     2
100
AcDbLine
 10
-39.55507968259815
 20
7.70834816834318
 30
0.0
 11
-38.42263810592434
 21
7.70834816834318
 31
0.0
  0
LINE
  5
21F
102
{ACAD_REACTORS
330
2EC
330
2ED
102
}
330
71
100
AcDbEntity
  8
0
  6
Continuous
 62
     2
100
AcDbLine
 10
-36.97065364219463
 20
7.1673876241253
 30
0.0
 11
-38.21115805244855
 21
7.1673876241253
 31
0.0
  0
LINE
  5
220
102
{ACAD_REACTORS
330
2EC
330
2ED
102
}
330
71
100
AcDbEntity
  8
0
  6
Continuous
 62
     2
100
AcDbLine
 10
-39.60911109938763
 20
10.22119714793638
 30
0.0
 11
-41.00706414632694
 21
7.1673876241253
 31
0.0
  0
LINE
  5
221
102
{ACAD_REACTORS
330
2EC
330
2ED
102
}
330
71
100
AcDbEntity
  8
0
  6
Continuous
 62
     2
100
AcDbLine
 10
-39.76655973607396
 20
7.1673876241253
 30
0.0
 11
-39.55507968259815
 21
7.70834816834318
 31
0.0
  0
LINE
  5
222
102
{ACAD_REACTORS
330
2EC
330
2ED
102
}
330
71
100
AcDbEntity
  8
0
  6
Continuous
 62
     2
100
AcDbLine
 10
-39.28902413145315
 20
8.38891143364978
 30
0.0
 11
-38.98885889426074
 21
9.15672639963648
 31
0.0
  0
LINE
  5
223
102
{ACAD_REACTORS
330
2EA
330
2EB
102
}
330
71
100
AcDbEntity
  8
0
  6
Continuous
 62
     2
100
AcDbLine
 10
-37.82071404891553
 20
10.52657810029959
 30
0.0
 11
-37.82071404891553
 21
13.58038762411078
 31
0.0
  0
LINE
  5
224
102
{ACAD_REACTORS
330
2EA
330
2EB
102
}
330
71
100
AcDbEntity
  8
0
  6
Continuous
 62
     2
100
AcDbLine
 10
-36.58020963866264
 20
13.58038762411078
 30
0.0
 11
-36.58020963866264
 21
10.52657810029959
 31
0.0
  0
LINE
  5
225
102
{ACAD_REACTORS
330
2EA
330
2EB
102
}
330
71
100
AcDbEntity
  8
0
  6
Continuous
 62
     2
100
AcDbLine
 10
-37.82071404891553
 20
13.58038762411078
 30
0.0
 11
-36.58020963866264
 21
13.58038762411078
 31
0.0
  0
LINE
  5
226
102
{ACAD_REACTORS
330
2E8
330
2E9
102
}
330
71
100
AcDbEntity
  8
0
  6
Continuous
 62
     2
100
AcDbLine
 10
-34.36161521263185
 20
11.3143098855933
 30
0.0
 11
-33.66502427456635
 21
10.52657810029959
 31
0.0
  0
LINE
  5
227
102
{ACAD_REACTORS
330
2E8
330
2E9
102
}
330
71
100
AcDbEntity
  8
0
  6
Continuous
 62
     2
100
AcDbLine
 10
-33.66502427456635
 20
10.52657810029959
 30
0.0
 11
-32.26230005681805
 21
10.52657810029959
 31
0.0
  0
LINE
  5
228
102
{ACAD_REACTORS
330
2E8
330
2E9
102
}
330
71
100
AcDbEntity
  8
0
  6
Continuous
 62
     2
100
AcDbLine
 10
-33.66025310375835
 20
12.10743709407458
 30
0.0
 11
-32.26230005681805
 21
10.52657810029959
 31
0.0
  0
LINE
  5
229
102
{ACAD_REACTORS
330
2E8
330
2E9
102
}
330
71
100
AcDbEntity
  8
0
  6
Continuous
 62
     2
100
AcDbLine
 10
-33.66025310375835
 20
12.10743709407458
 30
0.0
 11
-32.35772347299184
 21
13.58038762411078
 31
0.0
  0
LINE
  5
22A
102
{ACAD_REACTORS
330
2E8
330
2E9
102
}
330
71
100
AcDbEntity
  8
0
  6
Continuous
 62
     2
100
AcDbLine
 10
-34.36161521263185
 20
12.9005643025553
 30
0.0
 11
-33.76044769073906
 21
13.58038762411078
 31
0.0
  0
LINE
  5
22B
102
{ACAD_REACTORS
330
2E8
330
2E9
102
}
330
71
100
AcDbEntity
  8
0
  6
Continuous
 62
     2
100
AcDbLine
 10
-34.96278273452364
 20
13.58038762411078
 30
0.0
 11
-34.36161521263185
 21
12.9005643025553
 31
0.0
  0
LINE
  5
22C
102
{ACAD_REACTORS
330
2E8
330
2E9
102
}
330
71
100
AcDbEntity
  8
0
  6
Continuous
 62
     2
100
AcDbLine
 10
-34.96278273452364
 20
13.58038762411078
 30
0.0
 11
-36.36550695227294
 21
13.58038762411078
 31
0.0
  0
LINE
  5
22D
102
{ACAD_REACTORS
330
2DE
330
2DF
102
}
330
71
100
AcDbEntity
  8
0
  6
Continuous
 62
     2
100
AcDbLine
 10
-34.26619179645914
 20
7.1673876241253
 30
0.0
 11
-33.07339909429143
 21
7.1673876241253
 31
0.0
  0
LINE
  5
22E
102
{ACAD_REACTORS
330
2DE
330
2DF
102
}
330
71
100
AcDbEntity
  8
0
  6
Continuous
 62
     2
100
AcDbLine
 10
-33.07339909429143
 20
7.1673876241253
 30
0.0
 11
-33.07339909429143
 21
9.43593184181279
 31
0.0
  0
LINE
  5
22F
102
{ACAD_REACTORS
330
2DE
330
2DF
102
}
330
71
100
AcDbEntity
  8
0
  6
Continuous
 62
     2
100
AcDbLine
 10
-33.07339909429143
 20
9.43593184181279
 30
0.0
 11
-32.26230005681805
 21
9.43593184181279
 31
0.0
  0
LINE
  5
230
102
{ACAD_REACTORS
330
2DE
330
2DF
102
}
330
71
100
AcDbEntity
  8
0
  6
Continuous
 62
     2
100
AcDbLine
 10
-32.26230005681805
 20
9.43593184181279
 30
0.0
 11
-32.26230005681805
 21
10.22119714793638
 31
0.0
  0
LINE
  5
231
102
{ACAD_REACTORS
330
2DE
330
2DF
102
}
330
71
100
AcDbEntity
  8
0
  6
Continuous
 62
     2
100
AcDbLine
 10
-35.64724557544673
 20
10.2211971479359
 30
0.0
 11
-32.26230005681805
 21
10.22119714793638
 31
0.0
  0
LINE
  5
232
102
{ACAD_REACTORS
330
2DE
330
2DF
102
}
330
71
100
AcDbEntity
  8
0
  6
Continuous
 62
     2
100
AcDbLine
 10
-34.26619179645914
 20
9.43593184181279
 30
0.0
 11
-34.26619179645914
 21
7.1673876241253
 31
0.0
  0
LINE
  5
233
102
{ACAD_REACTORS
330
2E0
330
2E1
102
}
330
71
100
AcDbEntity
  8
0
  6
Continuous
 62
     2
100
AcDbLine
 10
-56.89567823193835
 20
9.1462677736898
 30
0.0
 11
-56.89567823193835
 21
9.72811918038488
 31
0.0
  0
LINE
  5
234
102
{ACAD_REACTORS
330
2E0
330
2E1
102
}
330
71
100
AcDbEntity
  8
0
  6
Continuous
 62
     2
100
AcDbLine
 10
-56.89567823193835
 20
11.9464023803211
 30
0.0
 11
-56.89567823193835
 21
12.55193766882789
 31
0.0
  0
LINE
  5
235
330
71
100
AcDbEntity
  8
1
  6
Continuous
 62
     6
100
AcDbLine
 10
-78.36549964733513
 20
-0.12611237589101
 30
0.0
 11
-64.41030417408516
 21
-0.12611237589113
 31
0.0
  0
LINE
  5
236
330
71
100
AcDbEntity
  8
1
  6
Continuous
 62
     6
100
AcDbLine
 10
-128.3654996473354
 20
-0.12611237589101
 30
0.0
 11
-133.4103041740851
 21
-0.12611237589101
 31
0.0
  0
LINE
  5
237
330
71
100
AcDbEntity
  8
1
  6
Continuous
 62
     6
100
AcDbLine
 10
21.63450035266484
 20
-0.12611237589101
 30
0.0
 11
65.13450035266486
 21
-0.12611237589101
 31
0.0
  0
LINE
  5
238
330
71
100
AcDbEntity
  8
1
  6
Continuous
 62
     6
100
AcDbLine
 10
-28.36549964733516
 20
-0.12611237589101
 30
0.0
 11
-46.21030417408514
 21
-0.12611237589101
 31
0.0
  0
LINE
  5
239
330
71
100
AcDbEntity
  8
1
  6
Continuous
 62
     2
100
AcDbLine
 10
65.13450035266486
 20
-0.12611237589101
 30
0.0
 11
70.13450035266385
 21
-0.12611237589101
 31
0.0
  0
LINE
  5
23A
330
71
100
AcDbEntity
  8
1
  6
Continuous
 62
     2
100
AcDbLine
 10
65.13450035266486
 20
-0.12611237589101
 30
0.0
 11
65.13450035266486
 21
-5.12611237589113
 31
0.0
  0
LINE
  5
23B
330
71
100
AcDbEntity
  8
1
  6
Continuous
 62
     6
100
AcDbLine
 10
-64.41030417408516
 20
16.87388762410899
 30
0.0
 11
-28.01030417408524
 21
16.87388762410899
 31
0.0
  0
LINE
  5
23C
330
71
100
AcDbEntity
  8
1
  6
Continuous
 62
     2
100
AcDbLine
 10
70.13450035266385
 20
-5.12611237589113
 30
0.0
 11
70.13450035266385
 21
-0.12611237589101
 31
0.0
  0
LINE
  5
23D
330
71
100
AcDbEntity
  8
1
  6
Continuous
 62
     2
100
AcDbLine
 10
70.13450035266385
 20
-5.12611237589113
 30
0.0
 11
65.13450035266486
 21
-5.12611237589113
 31
0.0
  0
LINE
  5
23E
330
71
100
AcDbEntity
  8
1
  6
Continuous
 62
     2
100
AcDbLine
 10
65.13450035266486
 20
-5.12611237589113
 30
0.0
 11
21.63450035266484
 21
-5.12611237589113
 31
0.0
  0
LINE
  5
23F
330
71
100
AcDbEntity
  8
1
  6
Continuous
 62
     6
100
AcDbLine
 10
65.13450035266655
 20
16.87388762410899
 30
0.0
 11
65.13450035266575
 21
49.8738876241091
 31
0.0
  0
LINE
  5
240
330
71
100
AcDbEntity
  8
1
  6
Continuous
 62
     2
100
AcDbLine
 10
70.13450035266385
 20
204.873887624109
 30
0.0
 11
-78.36549964733513
 21
204.873887624109
 31
0.0
  0
LINE
  5
241
330
71
100
AcDbEntity
  8
1
  6
Continuous
 62
     6
100
AcDbLine
 10
65.13450035266385
 20
184.873887624109
 30
0.0
 11
-221.8654996473342
 21
184.873887624109
 31
0.0
  0
LINE
  5
242
330
71
100
AcDbEntity
  8
1
  6
Continuous
 62
     2
100
AcDbLine
 10
65.13450035266575
 20
49.8738876241091
 30
0.0
 11
70.13450035266385
 21
49.8738876241091
 31
0.0
  0
LINE
  5
243
330
71
100
AcDbEntity
  8
1
  6
Continuous
 62
     6
100
AcDbLine
 10
65.13450035266575
 20
49.8738876241091
 30
0.0
 11
65.13450035266526
 21
99.8738876241089
 31
0.0
  0
LINE
  5
244
330
71
100
AcDbEntity
  8
1
  6
Continuous
 62
     2
100
AcDbLine
 10
70.13450035266385
 20
49.8738876241091
 30
0.0
 11
70.13450035266385
 21
99.8738876241089
 31
0.0
  0
LINE
  5
245
330
71
100
AcDbEntity
  8
1
  6
Continuous
 62
     2
100
AcDbLine
 10
65.13450035266526
 20
99.8738876241089
 30
0.0
 11
70.13450035266385
 21
99.8738876241089
 31
0.0
  0
LINE
  5
246
330
71
100
AcDbEntity
  8
1
  6
Continuous
 62
     6
100
AcDbLine
 10
65.13450035266526
 20
99.8738876241089
 30
0.0
 11
65.13450035266405
 21
149.873887624109
 31
0.0
  0
LINE
  5
247
330
71
100
AcDbEntity
  8
1
  6
Continuous
 62
     2
100
AcDbLine
 10
70.13450035266385
 20
99.8738876241089
 30
0.0
 11
70.13450035266385
 21
149.873887624109
 31
0.0
  0
LINE
  5
248
330
71
100
AcDbEntity
  8
1
  6
Continuous
 62
     2
100
AcDbLine
 10
65.13450035266405
 20
149.873887624109
 30
0.0
 11
70.13450035266385
 21
149.873887624109
 31
0.0
  0
LINE
  5
249
330
71
100
AcDbEntity
  8
1
  6
Continuous
 62
     6
100
AcDbLine
 10
65.13450035266405
 20
149.873887624109
 30
0.0
 11
65.13450035266385
 21
184.873887624109
 31
0.0
  0
LINE
  5
24A
330
71
100
AcDbEntity
  8
1
  6
Continuous
 62
     2
100
AcDbLine
 10
70.13450035266385
 20
149.873887624109
 30
0.0
 11
70.13450035266385
 21
204.873887624109
 31
0.0
  0
LINE
  5
24B
330
71
100
AcDbEntity
  8
1
  6
Continuous
 62
     2
100
AcDbLine
 10
70.13450035266385
 20
-0.12611237589101
 30
0.0
 11
70.13450035266385
 21
49.8738876241091
 31
0.0
  0
LINE
  5
24C
330
71
100
AcDbEntity
  8
1
  6
Continuous
 62
     2
100
AcDbLine
 10
-78.36549964733513
 20
204.873887624109
 30
0.0
 11
-226.8654996473342
 21
204.873887624109
 31
0.0
  0
LINE
  5
24D
330
71
100
AcDbEntity
  8
1
  6
Continuous
 62
     2
100
AcDbLine
 10
-78.36549964733513
 20
204.873887624109
 30
0.0
 11
-78.36549964733513
 21
195.6651957794077
 31
0.0
  0
LINE
  5
24E
330
71
100
AcDbEntity
  8
1
  6
Continuous
 62
     2
100
AcDbLine
 10
-226.8654996473342
 20
-5.12611237589113
 30
0.0
 11
-221.8654996473333
 21
-5.12611237589113
 31
0.0
  0
LINE
  5
24F
330
71
100
AcDbEntity
  8
1
  6
Continuous
 62
     2
100
AcDbLine
 10
-226.8654996473342
 20
204.873887624109
 30
0.0
 11
-226.8654996473342
 21
149.873887624109
 31
0.0
  0
LINE
  5
250
330
71
100
AcDbEntity
  8
1
  6
Continuous
 62
     6
100
AcDbLine
 10
-221.8654996473342
 20
184.873887624109
 30
0.0
 11
-221.8654996473342
 21
149.873887624109
 31
0.0
  0
LINE
  5
251
330
71
100
AcDbEntity
  8
1
  6
Continuous
 62
     2
100
AcDbLine
 10
-226.8654996473342
 20
149.873887624109
 30
0.0
 11
-221.8654996473342
 21
149.873887624109
 31
0.0
  0
LINE
  5
252
330
71
100
AcDbEntity
  8
1
  6
Continuous
 62
     2
100
AcDbLine
 10
-226.8654996473342
 20
149.873887624109
 30
0.0
 11
-226.8654996473342
 21
99.8738876241089
 31
0.0
  0
LINE
  5
253
330
71
100
AcDbEntity
  8
1
  6
Continuous
 62
     6
100
AcDbLine
 10
-221.8654996473342
 20
149.873887624109
 30
0.0
 11
-221.8654996473337
 21
99.8738876241089
 31
0.0
  0
LINE
  5
254
330
71
100
AcDbEntity
  8
1
  6
Continuous
 62
     2
100
AcDbLine
 10
-226.8654996473342
 20
99.8738876241089
 30
0.0
 11
-221.8654996473337
 21
99.8738876241089
 31
0.0
  0
LINE
  5
255
330
71
100
AcDbEntity
  8
1
  6
Continuous
 62
     2
100
AcDbLine
 10
-226.8654996473342
 20
99.8738876241089
 30
0.0
 11
-226.8654996473342
 21
49.8738876241091
 31
0.0
  0
LINE
  5
256
330
71
100
AcDbEntity
  8
1
  6
Continuous
 62
     6
100
AcDbLine
 10
-221.8654996473337
 20
99.8738876241089
 30
0.0
 11
-221.8654996473334
 21
49.8738876241091
 31
0.0
  0
LINE
  5
257
330
71
100
AcDbEntity
  8
1
  6
Continuous
 62
     2
100
AcDbLine
 10
-226.8654996473342
 20
49.8738876241091
 30
0.0
 11
-221.8654996473334
 21
49.8738876241091
 31
0.0
  0
LINE
  5
258
330
71
100
AcDbEntity
  8
1
  6
Continuous
 62
     2
100
AcDbLine
 10
-226.8654996473342
 20
49.8738876241091
 30
0.0
 11
-226.8654996473342
 21
-0.12611237589101
 31
0.0
  0
LINE
  5
259
330
71
100
AcDbEntity
  8
1
  6
Continuous
 62
     6
100
AcDbLine
 10
-221.8654996473334
 20
49.8738876241091
 30
0.0
 11
-221.8654996473333
 21
-0.12611237589101
 31
0.0
  0
LINE
  5
25A
330
71
100
AcDbEntity
  8
1
  6
Continuous
 62
     2
100
AcDbLine
 10
-178.3654996473351
 20
-5.12611237589113
 30
0.0
 11
-178.3654996473351
 21
-0.12611237589101
 31
0.0
  0
LINE
  5
25B
330
71
100
AcDbEntity
  8
1
  6
Continuous
 62
     2
100
AcDbLine
 10
-178.3654996473351
 20
-5.12611237589113
 30
0.0
 11
-128.3654996473354
 21
-5.12611237589113
 31
0.0
  0
LINE
  5
25C
330
71
100
AcDbEntity
  8
1
  6
Continuous
 62
     2
100
AcDbLine
 10
-128.3654996473354
 20
-5.12611237589113
 30
0.0
 11
-128.3654996473354
 21
-0.12611237589101
 31
0.0
  0
LINE
  5
25D
330
71
100
AcDbEntity
  8
1
  6
Continuous
 62
     2
100
AcDbLine
 10
-128.3654996473354
 20
-5.12611237589113
 30
0.0
 11
-78.36549964733513
 21
-5.12611237589113
 31
0.0
  0
LINE
  5
25E
330
71
100
AcDbEntity
  8
1
  6
Continuous
 62
     2
100
AcDbLine
 10
-78.36549964733513
 20
-5.12611237589113
 30
0.0
 11
-78.36549964733513
 21
-0.12611237589101
 31
0.0
  0
LINE
  5
25F
330
71
100
AcDbEntity
  8
1
  6
Continuous
 62
     2
100
AcDbLine
 10
-78.36549964733513
 20
-5.12611237589113
 30
0.0
 11
-28.36549964733516
 21
-5.12611237589113
 31
0.0
  0
LINE
  5
260
330
71
100
AcDbEntity
  8
1
  6
Continuous
 62
     2
100
AcDbLine
 10
-28.36549964733516
 20
-5.12611237589113
 30
0.0
 11
-28.36549964733516
 21
-0.12611237589101
 31
0.0
  0
LINE
  5
261
330
71
100
AcDbEntity
  8
1
  6
Continuous
 62
     2
100
AcDbLine
 10
21.63450035266484
 20
-5.12611237589113
 30
0.0
 11
21.63450035266484
 21
-0.12611237589101
 31
0.0
  0
LINE
  5
262
330
71
100
AcDbEntity
  8
1
  6
Continuous
 62
     2
100
AcDbLine
 10
21.63450035266484
 20
-5.12611237589113
 30
0.0
 11
-28.36549964733516
 21
-5.12611237589113
 31
0.0
  0
LINE
  5
263
330
71
100
AcDbEntity
  8
1
  6
Continuous
 62
     2
100
AcDbLine
 10
-221.8654996473333
 20
-0.12611237589101
 30
0.0
 11
-221.8654996473333
 21
-5.12611237589113
 31
0.0
  0
LINE
  5
264
330
71
100
AcDbEntity
  8
1
  6
Continuous
 62
     2
100
AcDbLine
 10
-221.8654996473333
 20
-5.12611237589113
 30
0.0
 11
-178.3654996473351
 21
-5.12611237589113
 31
0.0
  0
LINE
  5
265
330
71
100
AcDbEntity
  8
1
  6
Continuous
 62
     2
100
AcDbLine
 10
-221.8654996473333
 20
-0.12611237589101
 30
0.0
 11
-226.8654996473342
 21
-0.12611237589101
 31
0.0
  0
LINE
  5
266
330
71
100
AcDbEntity
  8
1
  6
Continuous
 62
     2
100
AcDbLine
 10
-226.8654996473342
 20
-0.12611237589101
 30
0.0
 11
-226.8654996473342
 21
-5.12611237589113
 31
0.0
  0
LINE
  5
267
330
71
100
AcDbEntity
  8
1
  6
Continuous
 62
     6
100
AcDbLine
 10
65.13450035266486
 20
-0.12611237589101
 30
0.0
 11
65.13450035266615
 21
8.37388762410899
 31
0.0
  0
LINE
  5
268
330
71
100
AcDbEntity
  8
1
  6
Continuous
 62
     6
100
AcDbLine
 10
-28.01030417408524
 20
-0.12611237589113
 30
0.0
 11
21.63450035266484
 21
-0.12611237589101
 31
0.0
  0
LINE
  5
269
330
71
100
AcDbEntity
  8
1
  6
Continuous
 62
     6
100
AcDbLine
 10
-180.6654996473354
 20
-0.12611237589113
 30
0.0
 11
-178.3654996473351
 21
-0.12611237589101
 31
0.0
  0
LINE
  5
26A
330
71
100
AcDbEntity
  8
1
  6
Continuous
 62
     6
100
AcDbLine
 10
-78.36549964733513
 20
-0.12611237589101
 30
0.0
 11
-128.3654996473354
 21
-0.12611237589101
 31
0.0
  0
LINE
  5
26B
330
71
100
AcDbEntity
  8
1
  6
Continuous
 62
     7
100
AcDbLine
 10
-64.41030417408516
 20
16.87388762410899
 30
0.0
 11
-64.41030417408516
 21
4.12388762410887
 31
0.0
  0
LINE
  5
26C
330
71
100
AcDbEntity
  8
1
  6
Continuous
 62
     7
100
AcDbLine
 10
-28.01030417408524
 20
16.87388762410899
 30
0.0
 11
-28.01030417408524
 21
4.12388762410899
 31
0.0
  0
LINE
  5
26D
330
71
100
AcDbEntity
  8
1
  6
Continuous
 62
     6
100
AcDbLine
 10
-180.6654996473354
 20
-0.12611237589113
 30
0.0
 11
-186.8654996473334
 21
-0.12611237589101
 31
0.0
  0
LINE
  5
26E
330
71
100
AcDbEntity
  8
1
  6
Continuous
 62
     6
100
AcDbLine
 10
-28.01030417408524
 20
-0.12611237589113
 30
0.0
 11
-28.36549964733516
 21
-0.12611237589101
 31
0.0
  0
LINE
  5
26F
330
71
100
AcDbEntity
  8
1
  6
Continuous
 62
     6
100
AcDbLine
 10
65.13450035266655
 20
16.87388762410899
 30
0.0
 11
65.13450035266615
 21
8.37388762410899
 31
0.0
  0
LINE
  5
270
330
71
100
AcDbEntity
  8
1
  6
Continuous
 62
     6
100
AcDbLine
 10
-186.8654996473334
 20
-0.12611237589101
 30
0.0
 11
-221.8654996473333
 21
-0.12611237589101
 31
0.0
  0
LINE
  5
271
330
71
100
AcDbEntity
  8
1
  6
Continuous
 62
     2
100
AcDbLine
 10
-60.17364928752255
 20
22.2488876241089
 30
0.0
 11
-55.17364928752255
 21
23.4988876241089
 31
0.0
  0
LINE
  5
272
330
71
100
AcDbEntity
  8
1
  6
Continuous
 62
     2
100
AcDbLine
 10
-60.17364928752255
 20
19.7488876241089
 30
0.0
 11
-60.17364928752255
 21
22.2488876241089
 31
0.0
  0
LINE
  5
273
330
71
100
AcDbEntity
  8
1
  6
Continuous
 62
     2
100
AcDbLine
 10
-55.17364928752255
 20
18.4988876241089
 30
0.0
 11
-60.17364928752255
 21
19.7488876241089
 31
0.0
  0
LINE
  5
274
330
71
100
AcDbEntity
  8
1
  6
Continuous
 62
     2
100
AcDbLine
 10
-55.17364928752255
 20
23.4988876241089
 30
0.0
 11
-55.17364928752255
 21
18.4988876241089
 31
0.0
  0
LINE
  5
275
330
71
100
AcDbEntity
  8
1
  6
Continuous
 62
     7
100
AcDbLine
 10
-64.41030417408516
 20
4.12388762410887
 30
0.0
 11
-46.21030417408514
 21
4.12388762410899
 31
0.0
  0
LINE
  5
276
330
71
100
AcDbEntity
  8
1
  6
Continuous
 62
     7
100
AcDbLine
 10
-64.41030417408516
 20
4.12388762410887
 30
0.0
 11
-64.41030417408516
 21
-0.12611237589113
 31
0.0
  0
LINE
  5
277
330
71
100
AcDbEntity
  8
1
  6
Continuous
 62
     7
100
AcDbLine
 10
-28.01030417408524
 20
4.12388762410899
 30
0.0
 11
-28.01030417408524
 21
-0.12611237589113
 31
0.0
  0
LINE
  5
278
330
71
100
AcDbEntity
  8
1
  6
Continuous
 62
     7
100
AcDbLine
 10
-46.21030417408514
 20
4.12388762410899
 30
0.0
 11
-46.21030417408514
 21
-0.12611237589101
 31
0.0
  0
LINE
  5
279
330
71
100
AcDbEntity
  8
1
  6
Continuous
 62
     6
100
AcDbLine
 10
-46.21030417408514
 20
-0.12611237589101
 30
0.0
 11
-64.41030417408516
 21
-0.12611237589113
 31
0.0
  0
LINE
  5
27A
330
71
100
AcDbEntity
  8
1
  6
Continuous
 62
     7
100
AcDbLine
 10
-46.21030417408514
 20
4.12388762410899
 30
0.0
 11
-28.01030417408524
 21
4.12388762410899
 31
0.0
  0
LINE
  5
27B
330
71
100
AcDbEntity
  8
1
  6
Continuous
 62
     6
100
AcDbLine
 10
-64.41030417408516
 20
25.37388762410899
 30
0.0
 11
65.13450035266655
 21
25.37388762410899
 31
0.0
  0
ARC
  5
27C
102
{ACAD_REACTORS
330
2E4
330
2E5
102
}
330
71
100
AcDbEntity
  8
0
  6
Continuous
 62
     2
100
AcDbCircle
 10
-49.01865617512516
 20
8.69429238603058
 30
0.0
 40
0.7717997786796947
100
AcDbArc
 50
321.8795802028417
 51
38.12041979715329
  0
ARC
  5
27D
102
{ACAD_REACTORS
330
2E4
330
2E5
102
}
330
71
100
AcDbEntity
  8
0
  6
Continuous
 62
     2
100
AcDbCircle
 10
-48.81891613877875
 20
8.53756120791058
 30
0.0
 40
0.5179085730137354
100
AcDbArc
 50
218.1204197971931
 51
321.879580202801
  0
ARC
  5
27E
102
{ACAD_REACTORS
330
2E4
330
2E5
102
}
330
71
100
AcDbEntity
  8
0
  6
Continuous
 62
     2
100
AcDbCircle
 10
-48.61917610243265
 20
8.69429238603058
 30
0.0
 40
0.7717997786794633
100
AcDbArc
 50
141.8795802028363
 51
218.1204197971687
  0
ARC
  5
27F
102
{ACAD_REACTORS
330
2E4
330
2E5
102
}
330
71
100
AcDbEntity
  8
0
  6
Continuous
 62
     2
100
AcDbCircle
 10
-48.81891613877875
 20
8.85102356415109
 30
0.0
 40
0.5179085730132998
100
AcDbArc
 50
38.12041979714704
 51
141.8795802028588
  0
ARC
  5
280
102
{ACAD_REACTORS
330
2DC
330
2DD
102
}
330
71
100
AcDbEntity
  8
0
  6
Continuous
 62
     2
100
AcDbCircle
 10
-51.88093027434263
 20
7.2838260206224
 30
0.0
 40
2.227384008973478
100
AcDbArc
 50
58.06909105004071
 51
71.55192388186722
  0
ARC
  5
281
102
{ACAD_REACTORS
330
2DC
330
2DD
102
}
330
71
100
AcDbEntity
  8
0
  6
Continuous
 62
     2
100
AcDbCircle
 10
-51.61920257338386
 20
8.89936381536958
 30
0.0
 40
0.5115800601948779
100
AcDbArc
 50
113.3722778881992
 51
151.4785267423044
  0
ARC
  5
282
102
{ACAD_REACTORS
330
2DC
330
2DD
102
}
330
71
100
AcDbEntity
  8
0
  6
Continuous
 62
     2
100
AcDbCircle
 10
-51.24184531530355
 20
8.69429238603058
 30
0.0
 40
0.9410597353332545
100
AcDbArc
 50
151.4785267422669
 51
208.5214732577057
  0
ARC
  5
283
102
{ACAD_REACTORS
330
2DC
330
2DD
102
}
330
71
100
AcDbEntity
  8
0
  6
Continuous
 62
     2
100
AcDbCircle
 10
-52.03880314943555
 20
12.00697333128699
 30
0.0
 40
4.852596863498142
100
AcDbArc
 50
275.1581447696249
 51
285.9799912583529
  0
ARC
  5
284
102
{ACAD_REACTORS
330
2DC
330
2DD
102
}
330
71
100
AcDbEntity
  8
0
  6
Continuous
 62
     2
100
AcDbCircle
 10
-51.74994705469965
 20
8.8070827480654
 30
0.0
 40
1.63969512393938
100
AcDbArc
 50
195.0618917770896
 51
275.1581447696398
  0
ARC
  5
285
102
{ACAD_REACTORS
330
2DC
330
2DD
102
}
330
71
100
AcDbEntity
  8
0
  6
Continuous
 62
     2
100
AcDbCircle
 10
-52.16907489816245
 20
8.69429238603058
 30
0.0
 40
1.205656168390944
100
AcDbArc
 50
164.9381082228765
 51
195.0618917770948
  0
ARC
  5
286
102
{ACAD_REACTORS
330
2DC
330
2DD
102
}
330
71
100
AcDbEntity
  8
0
  6
Continuous
 62
     2
100
AcDbCircle
 10
-51.74994705469965
 20
8.58150202399568
 30
0.0
 40
1.639695123940504
100
AcDbArc
 50
84.8418552303621
 51
164.9381082228864
  0
ARC
  5
287
102
{ACAD_REACTORS
330
2E0
330
2E1
102
}
330
71
100
AcDbEntity
  8
0
  6
Continuous
 62
     2
100
AcDbCircle
 10
-56.57996130886156
 20
9.72811918038488
 30
0.0
 40
0.3157169230765314
100
AcDbArc
 50
115.3740086783506
 51
180.0
  0
ARC
  5
288
102
{ACAD_REACTORS
330
2E0
330
2E1
102
}
330
71
100
AcDbEntity
  8
0
  6
Continuous
 62
     2
100
AcDbCircle
 10
-56.57996130886156
 20
11.9464023803211
 30
0.0
 40
0.3157169230767849
100
AcDbArc
 50
180.0
 51
244.6259913216486
  0
ARC
  5
289
102
{ACAD_REACTORS
330
2E0
330
2E1
102
}
330
71
100
AcDbEntity
  8
0
  6
Continuous
 62
     2
100
AcDbCircle
 10
-56.57434517355154
 20
10.84910272125879
 30
0.0
 40
2.018561131933267
100
AcDbArc
 50
269.8110329575862
 51
90.18896704241376
  0
ARC
  5
28A
102
{ACAD_REACTORS
330
2E0
330
2E1
102
}
330
71
100
AcDbEntity
  8
0
  6
Continuous
 62
     2
100
AcDbCircle
 10
-56.57996130886156
 20
9.1462677736898
 30
0.0
 40
0.3157169230767849
100
AcDbArc
 50
180.0
 51
269.8110329574567
  0
ARC
  5
28B
102
{ACAD_REACTORS
330
2DE
330
2DF
102
}
330
71
100
AcDbEntity
  8
0
  6
Continuous
 62
     2
100
AcDbCircle
 10
-35.51650109413095
 20
8.89936381536958
 30
0.0
 40
0.5115800601944119
100
AcDbArc
 50
109.3371432194845
 51
151.4785267424221
  0
ARC
  5
28C
102
{ACAD_REACTORS
330
2DE
330
2DF
102
}
330
71
100
AcDbEntity
  8
0
  6
Continuous
 62
     2
100
AcDbCircle
 10
-35.51650109413095
 20
8.48922095669209
 30
0.0
 40
0.5115800601960153
100
AcDbArc
 50
208.521473257687
 51
246.6277221118456
  0
ARC
  5
28D
102
{ACAD_REACTORS
330
2DE
330
2DF
102
}
330
71
100
AcDbEntity
  8
0
  6
Continuous
 62
     2
100
AcDbCircle
 10
-36.06637341890834
 20
8.69429238603058
 30
0.0
 40
1.205656168393009
100
AcDbArc
 50
164.9381082229029
 51
195.0618917770958
  0
ARC
  5
28E
102
{ACAD_REACTORS
330
2DE
330
2DF
102
}
330
71
100
AcDbEntity
  8
0
  6
Continuous
 62
     2
100
AcDbCircle
 10
-35.64724557544673
 20
8.58150202399568
 30
0.0
 40
1.639695123940218
100
AcDbArc
 50
90.0
 51
164.938108222895
  0
ARC
  5
28F
102
{ACAD_REACTORS
330
2E2
330
2E3
102
}
330
71
100
AcDbEntity
  8
0
  6
Continuous
 62
     2
100
AcDbCircle
 10
-45.07424066815045
 20
12.0534828622049
 30
0.0
 40
1.526904761905881
100
AcDbArc
 50
90.0
 51
270.0
  0
ARC
  5
290
102
{ACAD_REACTORS
330
2E6
330
2E7
102
}
330
71
100
AcDbEntity
  8
0
  6
Continuous
 62
     2
100
AcDbCircle
 10
-51.81693141337624
 20
12.5644179539996
 30
0.0
 40
0.35286382467112
100
AcDbArc
 50
270.0
 51
90.0
  0
ARC
  5
291
102
{ACAD_REACTORS
330
2E0
330
2E1
102
}
330
71
100
AcDbEntity
  8
0
  6
Continuous
 62
     2
100
AcDbCircle
 10
-59.15550999539326
 20
12.55211514547599
 30
0.0
 40
0.3157169230762005
100
AcDbArc
 50
90.0
 51
180.0
  0
ARC
  5
292
102
{ACAD_REACTORS
330
2E0
330
2E1
102
}
330
71
100
AcDbEntity
  8
0
  6
Continuous
 62
     2
100
AcDbCircle
 10
-57.15709228680865
 20
10.83726078035329
 30
0.0
 40
0.9118975235576114
100
AcDbArc
 50
115.1944106485283
 51
244.8055893514878
  0
ARC
  5
293
102
{ACAD_REACTORS
330
2E0
330
2E1
102
}
330
71
100
AcDbEntity
  8
0
  6
Continuous
 62
     2
100
AcDbCircle
 10
-57.67967673438363
 20
9.7264310342905
 30
0.0
 40
0.3157169230765859
100
AcDbArc
 50
0.0
 51
64.80558935146145
  0
ARC
  5
294
102
{ACAD_REACTORS
330
2E0
330
2E1
102
}
330
71
100
AcDbEntity
  8
0
  6
Continuous
 62
     2
100
AcDbCircle
 10
-59.74940467213975
 20
7.59163223950858
 30
0.0
 40
0.4242446153828041
100
AcDbArc
 50
180.0
 51
270.0
  0
ARC
  5
295
102
{ACAD_REACTORS
330
2E2
330
2E3
102
}
330
71
100
AcDbEntity
  8
0
  6
Continuous
 62
     2
100
AcDbCircle
 10
-44.85796865798525
 20
12.21021404032538
 30
0.0
 40
0.5179085730135277
100
AcDbArc
 50
38.12041979714349
 51
141.8795802028492
  0
ARC
  5
296
102
{ACAD_REACTORS
330
2E2
330
2E3
102
}
330
71
100
AcDbEntity
  8
0
  6
Continuous
 62
     2
100
AcDbCircle
 10
-44.65822862163896
 20
12.0534828622049
 30
0.0
 40
0.7717997786796724
100
AcDbArc
 50
141.8795802028404
 51
218.1204197971561
  0
ARC
  5
297
102
{ACAD_REACTORS
330
2E4
330
2E5
102
}
330
71
100
AcDbEntity
  8
0
  6
Continuous
 62
     2
100
AcDbCircle
 10
-48.81891613877875
 20
9.23286739633389
 30
0.0
 40
2.065479772208505
100
AcDbArc
 50
242.4518518243404
 51
297.5481481756871
  0
ARC
  5
298
102
{ACAD_REACTORS
330
2E4
330
2E5
102
}
330
71
100
AcDbEntity
  8
0
  6
Continuous
 62
     2
100
AcDbCircle
 10
-48.81891613877875
 20
8.15571737572779
 30
0.0
 40
2.065479772208568
100
AcDbArc
 50
62.45185182430637
 51
117.5481481756662
  0
ARC
  5
299
102
{ACAD_REACTORS
330
2E4
330
2E5
102
}
330
71
100
AcDbEntity
  8
0
  6
Continuous
 62
     2
100
AcDbCircle
 10
-49.09985603061205
 20
8.69429238603058
 30
0.0
 40
1.458034083651483
100
AcDbArc
 50
117.548148175662
 51
242.451851824338
  0
ARC
  5
29A
102
{ACAD_REACTORS
330
2E4
330
2E5
102
}
330
71
100
AcDbEntity
  8
0
  6
Continuous
 62
     2
100
AcDbCircle
 10
-48.53797624694545
 20
8.69429238603058
 30
0.0
 40
1.458034083652002
100
AcDbArc
 50
297.548148175701
 51
62.45185182429896
  0
ARC
  5
29B
102
{ACAD_REACTORS
330
2E2
330
2E3
102
}
330
71
100
AcDbEntity
  8
0
  6
Continuous
 62
     2
100
AcDbCircle
 10
-44.85796865798525
 20
11.89675168408448
 30
0.0
 40
0.5179085730134437
100
AcDbArc
 50
218.1204197971508
 51
321.8795802028565
  0
ARC
  5
29C
102
{ACAD_REACTORS
330
2E2
330
2E3
102
}
330
71
100
AcDbEntity
  8
0
  6
Continuous
 62
     2
100
AcDbCircle
 10
-45.05770869433144
 20
12.0534828622049
 30
0.0
 40
0.7717997786796362
100
AcDbArc
 50
321.8795802028439
 51
38.12041979715956
  0
ARC
  5
29D
102
{ACAD_REACTORS
330
2E0
330
2E1
102
}
330
71
100
AcDbEntity
  8
0
  6
Continuous
 62
     2
100
AcDbCircle
 10
-54.27609258142294
 20
7.59163223950858
 30
0.0
 40
0.4242446153832873
100
AcDbArc
 50
270.0
 51
0.0
  0
ARC
  5
29E
102
{ACAD_REACTORS
330
2E0
330
2E1
102
}
330
71
100
AcDbEntity
  8
0
  6
Continuous
 62
     2
100
AcDbCircle
 10
-54.27609258142294
 20
13.1561430087088
 30
0.0
 40
0.424244615383877
100
AcDbArc
 50
0.0
 51
90.0
  0
ARC
  5
29F
102
{ACAD_REACTORS
330
2E0
330
2E1
102
}
330
71
100
AcDbEntity
  8
0
  6
Continuous
 62
     2
100
AcDbCircle
 10
-59.74940467213975
 20
13.1561430087088
 30
0.0
 40
0.42424461538379
100
AcDbArc
 50
90.0
 51
180.0
  0
ARC
  5
2A0
102
{ACAD_REACTORS
330
2E0
330
2E1
102
}
330
71
100
AcDbEntity
  8
0
  6
Continuous
 62
     2
100
AcDbCircle
 10
-57.67967673438363
 20
8.19566010275889
 30
0.0
 40
0.3157169230767067
100
AcDbArc
 50
270.0
 51
0.0
  0
ARC
  5
2A1
102
{ACAD_REACTORS
330
2E0
330
2E1
102
}
330
71
100
AcDbEntity
  8
0
  6
Continuous
 62
     2
100
AcDbCircle
 10
-57.67967673438363
 20
11.94809052641548
 30
0.0
 40
0.3157169230761172
100
AcDbArc
 50
295.1944106485386
 51
0.0
  0
ARC
  5
2A2
102
{ACAD_REACTORS
330
2E0
330
2E1
102
}
330
71
100
AcDbEntity
  8
0
  6
Continuous
 62
     2
100
AcDbCircle
 10
-57.67967673438363
 20
12.55211514547599
 30
0.0
 40
0.3157169230765859
100
AcDbArc
 50
0.0
 51
90.0
  0
ARC
  5
2A3
102
{ACAD_REACTORS
330
2E0
330
2E1
102
}
330
71
100
AcDbEntity
  8
0
  6
Continuous
 62
     2
100
AcDbCircle
 10
-59.15550999539326
 20
8.19566010275889
 30
0.0
 40
0.3157169230756836
100
AcDbArc
 50
180.0
 51
270.0
  0
ARC
  5
2A4
102
{ACAD_REACTORS
330
2E6
330
2E7
102
}
330
71
100
AcDbEntity
  8
0
  6
Continuous
 62
     2
100
AcDbCircle
 10
-51.37545888713785
 20
12.52502198277711
 30
0.0
 40
1.05536564133371
100
AcDbArc
 50
270.0
 51
90.0
  0
ARC
  5
2A5
102
{ACAD_REACTORS
330
2DE
330
2DF
102
}
330
71
100
AcDbEntity
  8
0
  6
Continuous
 62
     2
100
AcDbCircle
 10
-35.64724557544673
 20
8.8070827480654
 30
0.0
 40
1.639695123940455
100
AcDbArc
 50
195.0618917771012
 51
275.1581447696762
  0
ARC
  5
2A6
102
{ACAD_REACTORS
330
2DE
330
2DF
102
}
330
71
100
AcDbEntity
  8
0
  6
Continuous
 62
     2
100
AcDbCircle
 10
-35.93610167018255
 20
12.00697333128699
 30
0.0
 40
4.852596863498828
100
AcDbArc
 50
275.1581447696364
 51
285.9799912583387
  0
ARC
  5
2A7
102
{ACAD_REACTORS
330
2DE
330
2DF
102
}
330
71
100
AcDbEntity
  8
0
  6
Continuous
 62
     2
100
AcDbCircle
 10
-35.77822879508975
 20
10.10475875143868
 30
0.0
 40
2.22738400897275
100
AcDbArc
 50
288.4480761181338
 51
301.9309089499399
  0
ARC
  5
2A8
102
{ACAD_REACTORS
330
2DE
330
2DF
102
}
330
71
100
AcDbEntity
  8
0
  6
Continuous
 62
     2
100
AcDbCircle
 10
-35.36006106142784
 20
8.85121297540209
 30
0.0
 40
0.9059297849852801
100
AcDbArc
 50
246.6277221118183
 51
288.4480761180822
  0
ARC
  5
2A9
102
{ACAD_REACTORS
330
2DE
330
2DF
102
}
330
71
100
AcDbEntity
  8
0
  6
Continuous
 62
     2
100
AcDbCircle
 10
-35.13914383604956
 20
8.69429238603058
 30
0.0
 40
0.9410597353348862
100
AcDbArc
 50
151.4785267423622
 51
208.5214732576697
  0
ARC
  5
2AA
102
{ACAD_REACTORS
330
2DE
330
2DF
102
}
330
71
100
AcDbEntity
  8
0
  6
Continuous
 62
     2
100
AcDbCircle
 10
-35.36983109602724
 20
8.48140883498669
 30
0.0
 40
0.9545230068260935
100
AcDbArc
 50
90.0
 51
109.337143219432
  0
ARC
  5
2AB
102
{ACAD_REACTORS
330
2E0
330
2E1
102
}
330
71
100
AcDbEntity
  8
0
  6
Continuous
 62
     2
100
AcDbCircle
 10
-56.57996130886156
 20
12.55193766882789
 30
0.0
 40
0.3157169230760746
100
AcDbArc
 50
90.18896704254334
 51
180.0
  0
ARC
  5
2AC
102
{ACAD_REACTORS
330
2E0
330
2E1
102
}
330
71
100
AcDbEntity
  8
0
  6
Continuous
 62
     2
100
AcDbCircle
 10
-57.10600400694943
 20
10.83726078035329
 30
0.0
 40
0.9118481501444573
100
AcDbArc
 50
295.3740086781765
 51
64.62599132180762
  0
ARC
  5
2AD
102
{ACAD_REACTORS
330
2DC
330
2DD
102
}
330
71
100
AcDbEntity
  8
0
  6
Continuous
 62
     2
100
AcDbCircle
 10
-51.88093027434263
 20
10.10475875143928
 30
0.0
 40
2.227384008972739
100
AcDbArc
 50
288.4480761181328
 51
301.9309089499592
  0
ARC
  5
2AE
102
{ACAD_REACTORS
330
2DC
330
2DD
102
}
330
71
100
AcDbEntity
  8
0
  6
Continuous
 62
     2
100
AcDbCircle
 10
-51.46276254068184
 20
8.85121297540209
 30
0.0
 40
0.9059297849849192
100
AcDbArc
 50
246.627722111871
 51
288.4480761181584
  0
ARC
  5
2AF
102
{ACAD_REACTORS
330
2DC
330
2DD
102
}
330
71
100
AcDbEntity
  8
0
  6
Continuous
 62
     2
100
AcDbCircle
 10
-51.61920257338386
 20
8.48922095669209
 30
0.0
 40
0.5115800601948034
100
AcDbArc
 50
208.5214732576956
 51
246.6277221118274
  0
ARC
  5
2B0
102
{ACAD_REACTORS
330
2DC
330
2DD
102
}
330
71
100
AcDbEntity
  8
0
  6
Continuous
 62
     2
100
AcDbCircle
 10
-51.46276254068184
 20
8.53737179665899
 30
0.0
 40
0.9059297849853228
100
AcDbArc
 50
71.55192388185348
 51
113.372277888129
  0
ARC
  5
2B1
102
{ACAD_REACTORS
330
2DC
330
2DD
102
}
330
71
100
AcDbEntity
  8
0
  6
Continuous
 62
     2
100
AcDbCircle
 10
-52.03880314943555
 20
5.38161144077469
 30
0.0
 40
4.852596863498073
100
AcDbArc
 50
74.02000874164739
 51
84.84185523037506
  0
CIRCLE
  5
2B2
102
{ACAD_REACTORS
330
2E0
330
2E1
102
}
330
71
100
AcDbEntity
  8
0
  6
Continuous
 62
     2
100
AcDbCircle
 10
-57.12981902162224
 20
10.83726078035329
 30
0.0
 40
0.4709789327785074
  0
CIRCLE
  5
2B3
330
71
100
AcDbEntity
  8
1
  6
Continuous
 62
     2
100
AcDbCircle
 10
-51.67364928752255
 20
20.9988876241089
 30
0.0
 40
1.249999999999908
  0
CIRCLE
  5
2B4
330
71
100
AcDbEntity
  8
1
  6
Continuous
 62
     2
100
AcDbCircle
 10
-51.67364928752255
 20
20.9988876241089
 30
0.0
 40
2.5
  0
TEXT
  5
2B5
330
71
100
AcDbEntity
  8
1
 62
     7
100
AcDbText
 10
-9.03675645207136
 20
18.17388762410889
 30
0.0
 40
2.5
  1
/
 41
0.9
  7
CONVERTER_11
100
AcDbText
  0
TEXT
  5
2B7
330
71
100
AcDbEntity
  8
1
 62
     7
100
AcDbText
 10
-6.88039195502935
 20
18.17388762410889
 30
0.0
 40
2.5
  1
00
 41
0.81
  7
CONVERTER_12
100
AcDbText
  0
TEXT
  5
2B8
330
71
100
AcDbEntity
  8
1
 62
     3
100
AcDbText
 10
30.71609207098774
 20
18.17388762410889
 30
0.0
 40
2.5
  1
17.04.2018
 41
0.81
  7
CONVERTER_12
100
AcDbText
  0
MTEXT
  5
2B9
330
71
100
AcDbEntity
  8
1
 62
     2
100
AcDbMText
 10
30.71609207098774
 20
24.3738876241089
 30
0.0
 40
1.8
 41
0.0
 71
     1
 72
     1
  1
date
  7
CONVERTER_11
 73
     1
 44
1.32052821128451
  0
MTEXT
  5
2BA
330
71
100
AcDbEntity
  8
1
 62
     2
100
AcDbMText
 10
0.88969582591486
 20
15.8738876241089
 30
0.0
 40
1.8
 41
0.0
 71
     1
 72
     1
  1
document-type
  7
CONVERTER_11
 73
     1
 44
1.20048019207683
  0
TEXT
  5
2BB
330
71
100
AcDbEntity
  8
1
 62
     3
100
AcDbText
 10
0.88969582591486
 20
9.67388762410889
 30
0.0
 40
2.5
  1
TECDOC 2D_Productdrawing
 41
0.81
  7
CONVERTER_12
100
AcDbText
  0
MTEXT
  5
2BD
330
71
100
AcDbEntity
  8
1
 62
     2
100
AcDbMText
 10
-26.91030417408516
 20
24.37388762410899
 30
0.0
 40
1.8
 41
0.0
 71
     1
 72
     1
  1
document-No. / RI
  7
CONVERTER_13
 73
     1
 44
1.32052821128451
  0
TEXT
  5
2BE
330
71
100
AcDbEntity
  8
1
 62
     7
100
AcDbText
 10
-26.91030417408516
 20
18.17388762410889
 30
0.0
 40
2.5
  1
01136868
 41
0.81
  7
CONVERTER_12
100
AcDbText
  0
MTEXT
  5
2C0
330
71
100
AcDbEntity
  8
1
 62
     3
100
AcDbMText
 10
60.67529621182716
 20
18.17388762410909
 30
0.0
 40
2.5
 41
0.0
 71
     8
 72
     1
  1
1:1
  7
CONVERTER_14
 73
     1
 44
1.32052821128451
  0
MTEXT
  5
2C1
330
71
100
AcDbEntity
  8
1
 62
     2
100
AcDbMText
 10
57.31609207098757
 20
24.37388762410899
 30
0.0
 40
1.8
 41
0.0
 71
     1
 72
     1
  1
scale
  7
CONVERTER_11
 73
     1
 44
1.20048019207683
  0
MTEXT
  5
2C2
330
71
100
AcDbEntity
  8
1
 62
     2
100
AcDbMText
 10
-26.91030417408516
 20
15.87388762410899
 30
0.0
 40
1.8
 41
0.0
 71
     1
 72
     1
  1
ident.-No.
  7
CONVERTER_11
 73
     1
 44
1.20048019207683
  0
TEXT
  5
2C3
330
71
100
AcDbEntity
  8
1
 62
     7
100
AcDbText
 10
-26.51030417408543
 20
9.67388762410889
 30
0.0
 40
2.5
  1
3030513
 41
0.81
  7
CONVERTER_12
100
AcDbText
  0
MTEXT
  5
2C4
330
71
100
AcDbEntity
  8
1
 62
     2
100
AcDbMText
 10
-98.84831889913266
 20
12.6238876241089
 30
0.0
 40
2.0
 41
0.0
 71
     5
 72
     1
  1
General Information\P- Simplified representation\P- Document excluded from change process\P- Linear dimensions [mm]
  7
CONVERTER_11
 73
     1
 44
1.20048019207683
  0
MTEXT
  5
2C5
330
71
100
AcDbEntity
  8
1
 62
     7
100
AcDbMText
 10
67.63450035266385
 20
74.87388762411089
 30
0.0
 40
3.5
 41
0.0
 71
     5
 72
     1
  1
C
  7
CONVERTER_11
 73
     1
 44
1.20048019207683
  0
MTEXT
  5
2C6
330
71
100
AcDbEntity
  8
1
 62
     7
100
AcDbMText
 10
67.63450035266385
 20
177.373887624109
 30
0.0
 40
3.5
 41
0.0
 71
     5
 72
     1
  1
A
  7
CONVERTER_11
 73
     1
 44
1.20048019207683
  0
MTEXT
  5
2C7
330
71
100
AcDbEntity
  8
1
 62
     7
100
AcDbMText
 10
67.63450035266385
 20
124.8738876241109
 30
0.0
 40
3.5
 41
0.0
 71
     5
 72
     1
  1
B
  7
CONVERTER_11
 73
     1
 44
1.20048019207683
  0
MTEXT
  5
2C8
330
71
100
AcDbEntity
  8
1
 62
     7
100
AcDbMText
 10
67.63450035266385
 20
22.37388762410899
 30
0.0
 40
3.5
 41
0.0
 71
     5
 72
     1
  1
D
  7
CONVERTER_11
 73
     1
 44
1.20048019207683
  0
MTEXT
  5
2C9
330
71
100
AcDbEntity
  8
1
 62
     7
100
AcDbMText
 10
-202.6154996473347
 20
-2.62611237589112
 30
0.0
 40
3.5
 41
0.0
 71
     5
 72
     1
  1
1
  7
CONVERTER_11
 73
     1
 44
1.20048019207683
  0
MTEXT
  5
2CA
330
71
100
AcDbEntity
  8
1
 62
     7
100
AcDbMText
 10
-153.3654996473351
 20
-2.62611237589112
 30
0.0
 40
3.5
 41
0.0
 71
     5
 72
     1
  1
2
  7
CONVERTER_11
 73
     1
 44
1.20048019207683
  0
MTEXT
  5
2CB
330
71
100
AcDbEntity
  8
1
 62
     7
100
AcDbMText
 10
-103.3654996473351
 20
-2.62611237589112
 30
0.0
 40
3.5
 41
0.0
 71
     5
 72
     1
  1
3
  7
CONVERTER_11
 73
     1
 44
1.20048019207683
  0
MTEXT
  5
2CC
330
71
100
AcDbEntity
  8
1
 62
     7
100
AcDbMText
 10
-53.36549964733524
 20
-2.62611237589112
 30
0.0
 40
3.5
 41
0.0
 71
     5
 72
     1
  1
4
  7
CONVERTER_11
 73
     1
 44
1.20048019207683
  0
MTEXT
  5
2CD
330
71
100
AcDbEntity
  8
1
 62
     7
100
AcDbMText
 10
-3.36549964733516
 20
-2.62611237589112
 30
0.0
 40
3.5
 41
0.0
 71
     5
 72
     1
  1
5
  7
CONVERTER_11
 73
     1
 44
1.20048019207683
  0
MTEXT
  5
2CE
330
71
100
AcDbEntity
  8
1
 62
     7
100
AcDbMText
 10
45.88450035266405
 20
-2.62611237589112
 30
0.0
 40
3.5
 41
0.0
 71
     5
 72
     1
  1
6
  7
CONVERTER_11
 73
     1
 44
1.20048019207683
  0
MTEXT
  5
2CF
330
71
100
AcDbEntity
  8
1
 62
     7
100
AcDbMText
 10
-224.3654996473342
 20
177.373887624109
 30
0.0
 40
3.5
 41
0.0
 71
     5
 72
     1
  1
A
  7
CONVERTER_11
 73
     1
 44
1.20048019207683
  0
MTEXT
  5
2D0
330
71
100
AcDbEntity
  8
1
 62
     7
100
AcDbMText
 10
-224.3654996473342
 20
124.873887624109
 30
0.0
 40
3.5
 41
0.0
 71
     5
 72
     1
  1
B
  7
CONVERTER_11
 73
     1
 44
1.20048019207683
  0
MTEXT
  5
2D1
330
71
100
AcDbEntity
  8
1
 62
     7
100
AcDbMText
 10
-224.3654996473342
 20
74.87388762410899
 30
0.0
 40
3.5
 41
0.0
 71
     5
 72
     1
  1
C
  7
CONVERTER_11
 73
     1
 44
1.20048019207683
  0
MTEXT
  5
2D2
330
71
100
AcDbEntity
  8
1
 62
     7
100
AcDbMText
 10
-224.3654996473342
 20
22.37388762410899
 30
0.0
 40
3.5
 41
0.0
 71
     5
 72
     1
  1
D
  7
CONVERTER_11
 73
     1
 44
1.20048019207683
  0
MTEXT
  5
2D3
330
71
100
AcDbEntity
  8
1
 62
     3
100
AcDbMText
 10
-38.21030417408525
 20
20.99888762410899
 30
0.0
 40
2.5
 41
0.0
 71
     5
 72
     1
  1
DIN A4
  7
CONVERTER_11
 73
     1
 44
1.20048019207683
  0
MTEXT
  5
2D4
330
71
100
AcDbEntity
  8
1
 62
     2
100
AcDbMText
 10
-27.01030417408524
 20
7.37388762410899
 30
0.0
 40
1.8
 41
0.0
 71
     1
 72
     1
  1
description
  7
CONVERTER_11
 73
     1
 44
1.20048019207683
  0
MTEXT
  5
2D5
330
71
100
AcDbEntity
  8
1
 62
     7
100
AcDbMText
 10
18.56209808929035
 20
3.12388762410922
 30
0.0
 40
3.0
 41
0.0
 71
     5
 72
     1
  1
D-ST 2,5-QUATTRO-0,8 OG
  7
CONVERTER_12
 73
     1
 44
1.20048019207683
  0
TEXT
  5
2D6
330
71
100
AcDbEntity
  8
1
 62
     2
100
AcDbText
 10
-39.97499536427165
 20
1.12388762410888
 30
0.0
 40
1.8
  1
1
 41
0.9
  7
CONVERTER_11
100
AcDbText
  0
TEXT
  5
2D7
330
71
100
AcDbEntity
  8
1
 62
     2
100
AcDbText
 10
-54.76403920374315
 20
1.07463897030698
 30
0.0
 40
1.8
  1
1
 41
0.9
  7
CONVERTER_11
100
AcDbText
  0
TEXT
  5
2D8
330
71
100
AcDbEntity
  8
1
 62
     2
100
AcDbText
 10
-63.41030417408516
 20
1.11487040911732
 30
0.0
 40
1.8
  1
page
 41
0.9
  7
CONVERTER_11
100
AcDbText
  0
TEXT
  5
2D9
330
71
100
AcDbEntity
  8
1
 62
     2
100
AcDbText
 10
-45.21030417408534
 20
1.11487040911737
 30
0.0
 40
1.8
  1
of
 41
0.9
  7
CONVERTER_11
100
AcDbText
  0
MTEXT
  5
2DA
330
71
100
AcDbEntity
  8
1
 62
     3
100
AcDbMText
 10
-39.00732202247525
 20
186.6651957794078
 30
0.0
 40
1.8
 41
0.0
 71
     7
 72
     1
  3
Transfer or duplication of this document as well as the utilisation or\Pcommunication of its content are not permitted unless express consent\Pis granted. Violations give rise to claims for damages. All rights reserved\Pin case of patent, utility mo
  1
del or design patent registrations.
  7
CONVERTER_11
 73
     1
 44
0.99639855942377
  0
MTEXT
  5
2DB
330
71
100
AcDbEntity
  8
1
 62
     3
100
AcDbMText
 10
-221.8604318612634
 20
186.6651957794078
 30
0.0
 40
1.8
 41
0.0
 71
     7
 72
     1
  3
Weitergabe sowie Vervielf\U+00e4ltigung dieses Dokuments, Verwertung und \PMitteilung seines Inhalts sind verboten, soweit nicht ausdr\U+00fccklich gestattet. \PZuwiderhandlungen verpflichten zu Schadenersatz. Alle Rechte f\U+00fcr den Fall\Pder Pat
  1
ent-, Gebrauchsmuster- oder Designeintragung vorbehalten.
  7
CONVERTER_11
 73
     1
 44
0.99639855942377
  0
HATCH
  5
2DC
330
71
100
AcDbEntity
  8
1
  6
Continuous
 62
     2
100
AcDbHatch
 10
0.0
 20
0.0
 30
0.0
210
0.0
220
0.0
230
1.0
  2
_USER
 70
     0
 71
     1
 91
        1
 92
        1
 93
       14
 72
     2
 10
-52.16907489816245
 20
8.694292386030583
 40
1.205656168390944
 50
164.9381082228765
 51
195.0618917770948
 73
     1
 72
     2
 10
-51.74994705469965
 20
8.807082748065397
 40
1.63969512393938
 50
195.0618917770896
 51
275.1581447696398
 73
     1
 72
     2
 10
-52.03880314943555
 20
12.00697333128699
 40
4.852596863498142
 50
275.1581447696249
 51
285.9799912583529
 73
     1
 72
     1
 10
-50.70287523231775
 20
7.341891025486177
 11
-50.70287523231775
 21
8.214408032289384
 72
     2
 10
-51.88093027434263
 20
10.10475875143928
 40
2.227384008972739
 50
58.06909105004075
 51
71.55192388186722
 73
     0
 72
     2
 10
-51.46276254068184
 20
8.851212975402092
 40
0.9059297849849192
 50
71.55192388184153
 51
113.372277888129
 73
     0
 72
     2
 10
-51.61920257338386
 20
8.489220956692094
 40
0.5115800601948034
 50
113.3722778881726
 51
151.4785267423044
 73
     0
 72
     2
 10
-51.24184531530355
 20
8.694292386030583
 40
0.9410597353332545
 50
151.4785267422943
 51
208.5214732577331
 73
     0
 72
     2
 10
-51.61920257338386
 20
8.899363815369583
 40
0.5115800601948779
 50
208.5214732576956
 51
246.6277221118009
 73
     0
 72
     2
 10
-51.46276254068184
 20
8.537371796658988
 40
0.9059297849853228
 50
246.627722111871
 51
288.4480761181465
 73
     0
 72
     2
 10
-51.88093027434263
 20
7.283826020622399
 40
2.227384008973478
 50
288.4480761181328
 51
301.9309089499592
 73
     0
 72
     1
 10
-50.70287523231775
 20
9.174176739772292
 11
-50.70287523231775
 21
10.04669374657559
 72
     2
 10
-52.03880314943555
 20
5.381611440774691
 40
4.852596863498073
 50
74.02000874164739
 51
84.84185523037506
 73
     1
 72
     2
 10
-51.74994705469965
 20
8.581502023995682
 40
1.639695123940504
 50
84.8418552303621
 51
164.9381082228864
 73
     1
 97
       14
330
2B1
330
1CA
330
280
330
2B0
330
281
330
282
330
2AF
330
2AE
330
2AD
330
1CB
330
283
330
284
330
285
330
286
 75
     1
 76
     0
 52
45.0
 41
0.1
 77
     0
 78
     1
 53
45.0
 43
0.0
 44
0.0
 45
-0.0707106781186548
 46
0.0707106781186548
 79
     0
 98
        1
 10
0.0
 20
0.0
  0
HATCH
  5
2DD
330
71
100
AcDbEntity
  8
1
  6
Continuous
 62
     2
100
AcDbHatch
 10
0.0
 20
0.0
 30
0.0
210
0.0
220
0.0
230
1.0
  2
_USER
 70
     0
 71
     1
 91
        1
 92
        1
 93
       14
 72
     2
 10
-52.16907489816245
 20
8.694292386030583
 40
1.205656168390944
 50
164.9381082228765
 51
195.0618917770948
 73
     1
 72
     2
 10
-51.74994705469965
 20
8.807082748065397
 40
1.63969512393938
 50
195.0618917770896
 51
275.1581447696398
 73
     1
 72
     2
 10
-52.03880314943555
 20
12.00697333128699
 40
4.852596863498142
 50
275.1581447696249
 51
285.9799912583529
 73
     1
 72
     1
 10
-50.70287523231775
 20
7.341891025486177
 11
-50.70287523231775
 21
8.214408032289384
 72
     2
 10
-51.88093027434263
 20
10.10475875143928
 40
2.227384008972739
 50
58.06909105004075
 51
71.55192388186722
 73
     0
 72
     2
 10
-51.46276254068184
 20
8.851212975402092
 40
0.9059297849849192
 50
71.55192388184153
 51
113.372277888129
 73
     0
 72
     2
 10
-51.61920257338386
 20
8.489220956692094
 40
0.5115800601948034
 50
113.3722778881726
 51
151.4785267423044
 73
     0
 72
     2
 10
-51.24184531530355
 20
8.694292386030583
 40
0.9410597353332545
 50
151.4785267422943
 51
208.5214732577331
 73
     0
 72
     2
 10
-51.61920257338386
 20
8.899363815369583
 40
0.5115800601948779
 50
208.5214732576956
 51
246.6277221118009
 73
     0
 72
     2
 10
-51.46276254068184
 20
8.537371796658988
 40
0.9059297849853228
 50
246.627722111871
 51
288.4480761181465
 73
     0
 72
     2
 10
-51.88093027434263
 20
7.283826020622399
 40
2.227384008973478
 50
288.4480761181328
 51
301.9309089499592
 73
     0
 72
     1
 10
-50.70287523231775
 20
9.174176739772292
 11
-50.70287523231775
 21
10.04669374657559
 72
     2
 10
-52.03880314943555
 20
5.381611440774691
 40
4.852596863498073
 50
74.02000874164739
 51
84.84185523037506
 73
     1
 72
     2
 10
-51.74994705469965
 20
8.581502023995682
 40
1.639695123940504
 50
84.8418552303621
 51
164.9381082228864
 73
     1
 97
       14
330
2B1
330
1CA
330
280
330
2B0
330
281
330
282
330
2AF
330
2AE
330
2AD
330
1CB
330
283
330
284
330
285
330
286
 75
     1
 76
     0
 52
45.0
 41
0.1
 77
     0
 78
     1
 53
45.0
 43
0.0
 44
0.0
 45
-0.0707106781186548
 46
0.0707106781186548
 79
     0
 98
        1
 10
0.0
 20
0.0
  0
HATCH
  5
2DE
330
71
100
AcDbEntity
  8
1
  6
Continuous
 62
     2
100
AcDbHatch
 10
0.0
 20
0.0
 30
0.0
210
0.0
220
0.0
230
1.0
  2
_USER
 70
     0
 71
     1
 91
        1
 92
        1
 93
       18
 72
     2
 10
-35.64724557544673
 20
8.581502023995682
 40
1.639695123940218
 50
90.0
 51
164.938108222895
 73
     1
 72
     2
 10
-36.06637341890834
 20
8.694292386030583
 40
1.205656168393009
 50
164.9381082229029
 51
195.0618917770958
 73
     1
 72
     2
 10
-35.64724557544673
 20
8.807082748065397
 40
1.639695123940455
 50
195.0618917771012
 51
275.1581447696762
 73
     1
 72
     2
 10
-35.93610167018255
 20
12.00697333128699
 40
4.852596863498828
 50
275.1581447696364
 51
285.9799912583387
 73
     1
 72
     1
 10
-34.60017375306583
 20
7.34189102548558
 11
-34.60017375306583
 21
8.214408032288901
 72
     2
 10
-35.77822879508975
 20
10.10475875143868
 40
2.22738400897275
 50
58.06909105006009
 51
71.55192388186622
 73
     0
 72
     2
 10
-35.36006106142784
 20
8.851212975402092
 40
0.9059297849852801
 50
71.55192388191786
 51
113.3722778881817
 73
     0
 72
     2
 10
-35.51650109413095
 20
8.489220956692094
 40
0.5115800601960153
 50
113.3722778881544
 51
151.478526742313
 73
     0
 72
     2
 10
-35.13914383604956
 20
8.694292386030583
 40
0.9410597353348862
 50
151.4785267423303
 51
208.5214732576378
 73
     0
 72
     2
 10
-35.51650109413095
 20
8.899363815369583
 40
0.5115800601944119
 50
208.5214732575779
 51
250.6628567805155
 73
     0
 72
     2
 10
-35.36983109602724
 20
8.481408834986695
 40
0.9545230068260935
 50
250.662856780568
 51
270.0
 73
     0
 72
     1
 10
-35.36983109602724
 20
9.435931841812788
 11
-34.26619179645914
 21
9.435931841812788
 72
     1
 10
-34.26619179645914
 20
9.435931841812788
 11
-34.26619179645914
 21
7.167387624125297
 72
     1
 10
-34.26619179645914
 20
7.167387624125297
 11
-33.07339909429143
 21
7.167387624125297
 72
     1
 10
-33.07339909429143
 20
7.167387624125297
 11
-33.07339909429143
 21
9.435931841812788
 72
     1
 10
-33.07339909429143
 20
9.435931841812788
 11
-32.26230005681805
 21
9.435931841812788
 72
     1
 10
-32.26230005681805
 20
9.435931841812788
 11
-32.26230005681805
 21
10.22119714793638
 72
     1
 10
-32.26230005681805
 20
10.22119714793638
 11
-35.64724557544673
 21
10.2211971479359
 97
       18
330
230
330
22F
330
22E
330
22D
330
232
330
1CC
330
2AA
330
28B
330
2A9
330
28C
330
2A8
330
2A7
330
1CD
330
2A6
330
2A5
330
28D
330
28E
330
231
 75
     1
 76
     0
 52
45.0
 41
0.1
 77
     0
 78
     1
 53
45.0
 43
0.0
 44
0.0
 45
-0.0707106781186548
 46
0.0707106781186548
 79
     0
 98
        1
 10
0.0
 20
0.0
  0
HATCH
  5
2DF
330
71
100
AcDbEntity
  8
1
  6
Continuous
 62
     2
100
AcDbHatch
 10
0.0
 20
0.0
 30
0.0
210
0.0
220
0.0
230
1.0
  2
_USER
 70
     0
 71
     1
 91
        1
 92
        1
 93
       18
 72
     2
 10
-35.64724557544673
 20
8.581502023995682
 40
1.639695123940218
 50
90.0
 51
164.938108222895
 73
     1
 72
     2
 10
-36.06637341890834
 20
8.694292386030583
 40
1.205656168393009
 50
164.9381082229029
 51
195.0618917770958
 73
     1
 72
     2
 10
-35.64724557544673
 20
8.807082748065397
 40
1.639695123940455
 50
195.0618917771012
 51
275.1581447696762
 73
     1
 72
     2
 10
-35.93610167018255
 20
12.00697333128699
 40
4.852596863498828
 50
275.1581447696364
 51
285.9799912583387
 73
     1
 72
     1
 10
-34.60017375306583
 20
7.34189102548558
 11
-34.60017375306583
 21
8.214408032288901
 72
     2
 10
-35.77822879508975
 20
10.10475875143868
 40
2.22738400897275
 50
58.06909105006009
 51
71.55192388186622
 73
     0
 72
     2
 10
-35.36006106142784
 20
8.851212975402092
 40
0.9059297849852801
 50
71.55192388191786
 51
113.3722778881817
 73
     0
 72
     2
 10
-35.51650109413095
 20
8.489220956692094
 40
0.5115800601960153
 50
113.3722778881544
 51
151.478526742313
 73
     0
 72
     2
 10
-35.13914383604956
 20
8.694292386030583
 40
0.9410597353348862
 50
151.4785267423303
 51
208.5214732576378
 73
     0
 72
     2
 10
-35.51650109413095
 20
8.899363815369583
 40
0.5115800601944119
 50
208.5214732575779
 51
250.6628567805155
 73
     0
 72
     2
 10
-35.36983109602724
 20
8.481408834986695
 40
0.9545230068260935
 50
250.662856780568
 51
270.0
 73
     0
 72
     1
 10
-35.36983109602724
 20
9.435931841812788
 11
-34.26619179645914
 21
9.435931841812788
 72
     1
 10
-34.26619179645914
 20
9.435931841812788
 11
-34.26619179645914
 21
7.167387624125297
 72
     1
 10
-34.26619179645914
 20
7.167387624125297
 11
-33.07339909429143
 21
7.167387624125297
 72
     1
 10
-33.07339909429143
 20
7.167387624125297
 11
-33.07339909429143
 21
9.435931841812788
 72
     1
 10
-33.07339909429143
 20
9.435931841812788
 11
-32.26230005681805
 21
9.435931841812788
 72
     1
 10
-32.26230005681805
 20
9.435931841812788
 11
-32.26230005681805
 21
10.22119714793638
 72
     1
 10
-32.26230005681805
 20
10.22119714793638
 11
-35.64724557544673
 21
10.2211971479359
 97
       18
330
230
330
22F
330
22E
330
22D
330
232
330
1CC
330
2AA
330
28B
330
2A9
330
28C
330
2A8
330
2A7
330
1CD
330
2A6
330
2A5
330
28D
330
28E
330
231
 75
     1
 76
     0
 52
45.0
 41
0.1
 77
     0
 78
     1
 53
45.0
 43
0.0
 44
0.0
 45
-0.0707106781186548
 46
0.0707106781186548
 79
     0
 98
        1
 10
0.0
 20
0.0
  0
HATCH
  5
2E0
330
71
100
AcDbEntity
  8
1
  6
Continuous
 62
     2
100
AcDbHatch
 10
0.0
 20
0.0
 30
0.0
210
0.0
220
0.0
230
1.0
  2
_USER
 70
     0
 71
     1
 91
        4
 92
        1
 93
        8
 72
     2
 10
-59.74940467213975
 20
13.1561430087088
 40
0.42424461538379
 50
90.0
 51
180.0
 73
     1
 72
     1
 10
-60.17364928752255
 20
13.1561430087088
 11
-60.17364928752255
 21
7.591632239508584
 72
     2
 10
-59.74940467213975
 20
7.591632239508584
 40
0.4242446153828041
 50
180.0
 51
270.0
 73
     1
 72
     1
 10
-59.74940467213975
 20
7.167387624125297
 11
-54.27609258142294
 21
7.167387624125297
 72
     2
 10
-54.27609258142294
 20
7.591632239508584
 40
0.4242446153832873
 50
270.0
 51
360.0
 73
     1
 72
     1
 10
-53.85184796603906
 20
7.591632239508584
 11
-53.85184796603906
 21
13.1561430087088
 72
     2
 10
-54.27609258142294
 20
13.1561430087088
 40
0.424244615383877
 50
0.0
 51
90.0
 73
     1
 72
     1
 10
-54.27609258142294
 20
13.58038762409259
 11
-59.74940467213975
 21
13.58038762409259
 97
        8
330
29E
330
1FB
330
29D
330
1FC
330
294
330
1F9
330
29F
330
1FA
 92
       16
 93
        1
 72
     2
 10
-57.12981902162224
 20
10.83726078035329
 40
0.4709789327785074
 50
0.0
 51
360.0
 73
     1
 97
        1
330
2B2
 92
       16
 93
        8
 72
     2
 10
-57.10600400694943
 20
10.83726078035329
 40
0.9118481501444573
 50
295.3740086781765
 51
424.6259913218076
 73
     1
 72
     2
 10
-56.57996130886156
 20
11.9464023803211
 40
0.3157169230767849
 50
115.3740086783514
 51
180.0
 73
     0
 72
     1
 10
-56.89567823193835
 20
11.9464023803211
 11
-56.89567823193835
 21
12.55193766882789
 72
     2
 10
-56.57996130886156
 20
12.55193766882789
 40
0.3157169230760746
 50
180.0
 51
269.8110329574566
 73
     0
 72
     2
 10
-56.57434517355154
 20
10.84910272125879
 40
2.018561131933267
 50
269.8110329575862
 51
450.1889670424138
 73
     0
 72
     2
 10
-56.57996130886156
 20
9.1462677736898
 40
0.3157169230767849
 50
90.18896704254325
 51
180.0
 73
     0
 72
     1
 10
-56.89567823193835
 20
9.1462677736898
 11
-56.89567823193835
 21
9.72811918038488
 72
     2
 10
-56.57996130886156
 20
9.72811918038488
 40
0.3157169230765314
 50
180.0
 51
244.6259913216495
 73
     0
 97
        8
330
2AC
330
288
330
234
330
2AB
330
289
330
28A
330
233
330
287
 92
       16
 93
       12
 72
     1
 10
-59.15550999539326
 20
7.879943179682186
 11
-57.67967673438363
 21
7.879943179682186
 72
     2
 10
-57.67967673438363
 20
8.195660102758893
 40
0.3157169230767067
 50
270.0
 51
360.0
 73
     1
 72
     1
 10
-57.36395981130704
 20
8.195660102758893
 11
-57.36395981130704
 21
9.7264310342905
 72
     2
 10
-57.67967673438363
 20
9.7264310342905
 40
0.3157169230765859
 50
0.0
 51
64.80558935146145
 73
     1
 72
     2
 10
-57.15709228680865
 20
10.83726078035329
 40
0.9118975235576114
 50
115.1944106485122
 51
244.8055893514717
 73
     0
 72
     2
 10
-57.67967673438363
 20
11.94809052641548
 40
0.3157169230761172
 50
295.1944106485386
 51
360.0
 73
     1
 72
     1
 10
-57.36395981130704
 20
11.94809052641548
 11
-57.36395981130704
 21
12.55211514547599
 72
     2
 10
-57.67967673438363
 20
12.55211514547599
 40
0.3157169230765859
 50
0.0
 51
90.0
 73
     1
 72
     1
 10
-57.67967673438363
 20
12.86783206855219
 11
-59.15550999539326
 21
12.86783206855219
 72
     2
 10
-59.15550999539326
 20
12.55211514547599
 40
0.3157169230762005
 50
90.0
 51
180.0
 73
     1
 72
     1
 10
-59.47122691846894
 20
12.55211514547599
 11
-59.47122691846894
 21
8.195660102758893
 72
     2
 10
-59.15550999539326
 20
8.195660102758893
 40
0.3157169230756836
 50
180.0
 51
270.0
 73
     1
 97
       12
330
200
330
291
330
1FF
330
2A2
330
1FE
330
2A1
330
292
330
293
330
1FD
330
2A0
330
1F8
330
2A3
 75
     1
 76
     0
 52
45.0
 41
0.1
 77
     0
 78
     1
 53
45.0
 43
0.0
 44
0.0
 45
-0.0707106781186548
 46
0.0707106781186548
 79
     0
 98
        1
 10
0.0
 20
0.0
  0
HATCH
  5
2E1
330
71
100
AcDbEntity
  8
1
  6
Continuous
 62
     2
100
AcDbHatch
 10
0.0
 20
0.0
 30
0.0
210
0.0
220
0.0
230
1.0
  2
_USER
 70
     0
 71
     1
 91
        4
 92
        1
 93
        8
 72
     2
 10
-59.74940467213975
 20
13.1561430087088
 40
0.42424461538379
 50
90.0
 51
180.0
 73
     1
 72
     1
 10
-60.17364928752255
 20
13.1561430087088
 11
-60.17364928752255
 21
7.591632239508584
 72
     2
 10
-59.74940467213975
 20
7.591632239508584
 40
0.4242446153828041
 50
180.0
 51
270.0
 73
     1
 72
     1
 10
-59.74940467213975
 20
7.167387624125297
 11
-54.27609258142294
 21
7.167387624125297
 72
     2
 10
-54.27609258142294
 20
7.591632239508584
 40
0.4242446153832873
 50
270.0
 51
360.0
 73
     1
 72
     1
 10
-53.85184796603906
 20
7.591632239508584
 11
-53.85184796603906
 21
13.1561430087088
 72
     2
 10
-54.27609258142294
 20
13.1561430087088
 40
0.424244615383877
 50
0.0
 51
90.0
 73
     1
 72
     1
 10
-54.27609258142294
 20
13.58038762409259
 11
-59.74940467213975
 21
13.58038762409259
 97
        8
330
29E
330
1FB
330
29D
330
1FC
330
294
330
1F9
330
29F
330
1FA
 92
       16
 93
        1
 72
     2
 10
-57.12981902162224
 20
10.83726078035329
 40
0.4709789327785074
 50
0.0
 51
360.0
 73
     1
 97
        1
330
2B2
 92
       16
 93
        8
 72
     2
 10
-57.10600400694943
 20
10.83726078035329
 40
0.9118481501444573
 50
295.3740086781765
 51
424.6259913218076
 73
     1
 72
     2
 10
-56.57996130886156
 20
11.9464023803211
 40
0.3157169230767849
 50
115.3740086783514
 51
180.0
 73
     0
 72
     1
 10
-56.89567823193835
 20
11.9464023803211
 11
-56.89567823193835
 21
12.55193766882789
 72
     2
 10
-56.57996130886156
 20
12.55193766882789
 40
0.3157169230760746
 50
180.0
 51
269.8110329574566
 73
     0
 72
     2
 10
-56.57434517355154
 20
10.84910272125879
 40
2.018561131933267
 50
269.8110329575862
 51
450.1889670424138
 73
     0
 72
     2
 10
-56.57996130886156
 20
9.1462677736898
 40
0.3157169230767849
 50
90.18896704254325
 51
180.0
 73
     0
 72
     1
 10
-56.89567823193835
 20
9.1462677736898
 11
-56.89567823193835
 21
9.72811918038488
 72
     2
 10
-56.57996130886156
 20
9.72811918038488
 40
0.3157169230765314
 50
180.0
 51
244.6259913216495
 73
     0
 97
        8
330
2AC
330
288
330
234
330
2AB
330
289
330
28A
330
233
330
287
 92
       16
 93
       12
 72
     1
 10
-59.15550999539326
 20
7.879943179682186
 11
-57.67967673438363
 21
7.879943179682186
 72
     2
 10
-57.67967673438363
 20
8.195660102758893
 40
0.3157169230767067
 50
270.0
 51
360.0
 73
     1
 72
     1
 10
-57.36395981130704
 20
8.195660102758893
 11
-57.36395981130704
 21
9.7264310342905
 72
     2
 10
-57.67967673438363
 20
9.7264310342905
 40
0.3157169230765859
 50
0.0
 51
64.80558935146145
 73
     1
 72
     2
 10
-57.15709228680865
 20
10.83726078035329
 40
0.9118975235576114
 50
115.1944106485122
 51
244.8055893514717
 73
     0
 72
     2
 10
-57.67967673438363
 20
11.94809052641548
 40
0.3157169230761172
 50
295.1944106485386
 51
360.0
 73
     1
 72
     1
 10
-57.36395981130704
 20
11.94809052641548
 11
-57.36395981130704
 21
12.55211514547599
 72
     2
 10
-57.67967673438363
 20
12.55211514547599
 40
0.3157169230765859
 50
0.0
 51
90.0
 73
     1
 72
     1
 10
-57.67967673438363
 20
12.86783206855219
 11
-59.15550999539326
 21
12.86783206855219
 72
     2
 10
-59.15550999539326
 20
12.55211514547599
 40
0.3157169230762005
 50
90.0
 51
180.0
 73
     1
 72
     1
 10
-59.47122691846894
 20
12.55211514547599
 11
-59.47122691846894
 21
8.195660102758893
 72
     2
 10
-59.15550999539326
 20
8.195660102758893
 40
0.3157169230756836
 50
180.0
 51
270.0
 73
     1
 97
       12
330
200
330
291
330
1FF
330
2A2
330
1FE
330
2A1
330
292
330
293
330
1FD
330
2A0
330
1F8
330
2A3
 75
     1
 76
     0
 52
45.0
 41
0.1
 77
     0
 78
     1
 53
45.0
 43
0.0
 44
0.0
 45
-0.0707106781186548
 46
0.0707106781186548
 79
     0
 98
        1
 10
0.0
 20
0.0
  0
HATCH
  5
2E2
330
71
100
AcDbEntity
  8
1
  6
Continuous
 62
     2
100
AcDbHatch
 10
0.0
 20
0.0
 30
0.0
210
0.0
220
0.0
230
1.0
  2
_USER
 70
     0
 71
     1
 91
        2
 92
        1
 93
       12
 72
     2
 10
-45.07424066815045
 20
12.0534828622049
 40
1.526904761905881
 50
90.0
 51
270.0
 73
     1
 72
     1
 10
-45.07424066815045
 20
10.52657810029959
 11
-41.92392094436946
 21
10.52657810029959
 72
     1
 10
-41.92392094436946
 20
10.52657810029959
 11
-41.92392094436946
 21
11.22459170574209
 72
     1
 10
-41.92392094436946
 20
11.22459170574209
 11
-43.25984877079713
 21
11.22459170574209
 72
     1
 10
-43.25984877079713
 20
11.22459170574209
 11
-43.25984877079713
 21
11.7044760594838
 72
     1
 10
-43.25984877079713
 20
11.7044760594838
 11
-41.92392094436946
 21
11.7044760594838
 72
     1
 10
-41.92392094436946
 20
11.7044760594838
 11
-41.92392094436946
 21
12.40248966492609
 72
     1
 10
-41.92392094436946
 20
12.40248966492609
 11
-43.25984877079713
 21
12.40248966492609
 72
     1
 10
-43.25984877079713
 20
12.40248966492609
 11
-43.25984877079713
 21
12.8823740186678
 72
     1
 10
-43.25984877079713
 20
12.8823740186678
 11
-41.92392094436946
 21
12.8823740186678
 72
     1
 10
-41.92392094436946
 20
12.8823740186678
 11
-41.92392094436946
 21
13.58038762411078
 72
     1
 10
-41.92392094436946
 20
13.58038762411078
 11
-45.07424066815045
 21
13.58038762411078
 97
       12
330
1EF
330
1E9
330
210
330
20F
330
20E
330
20D
330
1EA
330
1EB
330
1EC
330
1ED
330
28F
330
1EE
 92
       16
 93
        4
 72
     2
 10
-44.65822862163896
 20
12.0534828622049
 40
0.7717997786796724
 50
141.8795802028404
 51
218.1204197971561
 73
     1
 72
     2
 10
-44.85796865798525
 20
11.89675168408448
 40
0.5179085730134437
 50
218.1204197971508
 51
321.8795802028565
 73
     1
 72
     2
 10
-45.05770869433144
 20
12.0534828622049
 40
0.7717997786796362
 50
321.8795802028439
 51
398.1204197971596
 73
     1
 72
     2
 10
-44.85796865798525
 20
12.21021404032538
 40
0.5179085730135277
 50
38.12041979714349
 51
141.8795802028492
 73
     1
 97
        4
330
29C
330
29B
330
296
330
295
 75
     1
 76
     0
 52
45.0
 41
0.1
 77
     0
 78
     1
 53
45.0
 43
0.0
 44
0.0
 45
-0.0707106781186548
 46
0.0707106781186548
 79
     0
 98
        1
 10
0.0
 20
0.0
  0
HATCH
  5
2E3
330
71
100
AcDbEntity
  8
1
  6
Continuous
 62
     2
100
AcDbHatch
 10
0.0
 20
0.0
 30
0.0
210
0.0
220
0.0
230
1.0
  2
_USER
 70
     0
 71
     1
 91
        2
 92
        1
 93
       12
 72
     2
 10
-45.07424066815045
 20
12.0534828622049
 40
1.526904761905881
 50
90.0
 51
270.0
 73
     1
 72
     1
 10
-45.07424066815045
 20
10.52657810029959
 11
-41.92392094436946
 21
10.52657810029959
 72
     1
 10
-41.92392094436946
 20
10.52657810029959
 11
-41.92392094436946
 21
11.22459170574209
 72
     1
 10
-41.92392094436946
 20
11.22459170574209
 11
-43.25984877079713
 21
11.22459170574209
 72
     1
 10
-43.25984877079713
 20
11.22459170574209
 11
-43.25984877079713
 21
11.7044760594838
 72
     1
 10
-43.25984877079713
 20
11.7044760594838
 11
-41.92392094436946
 21
11.7044760594838
 72
     1
 10
-41.92392094436946
 20
11.7044760594838
 11
-41.92392094436946
 21
12.40248966492609
 72
     1
 10
-41.92392094436946
 20
12.40248966492609
 11
-43.25984877079713
 21
12.40248966492609
 72
     1
 10
-43.25984877079713
 20
12.40248966492609
 11
-43.25984877079713
 21
12.8823740186678
 72
     1
 10
-43.25984877079713
 20
12.8823740186678
 11
-41.92392094436946
 21
12.8823740186678
 72
     1
 10
-41.92392094436946
 20
12.8823740186678
 11
-41.92392094436946
 21
13.58038762411078
 72
     1
 10
-41.92392094436946
 20
13.58038762411078
 11
-45.07424066815045
 21
13.58038762411078
 97
       12
330
1EF
330
1E9
330
210
330
20F
330
20E
330
20D
330
1EA
330
1EB
330
1EC
330
1ED
330
28F
330
1EE
 92
       16
 93
        4
 72
     2
 10
-44.65822862163896
 20
12.0534828622049
 40
0.7717997786796724
 50
141.8795802028404
 51
218.1204197971561
 73
     1
 72
     2
 10
-44.85796865798525
 20
11.89675168408448
 40
0.5179085730134437
 50
218.1204197971508
 51
321.8795802028565
 73
     1
 72
     2
 10
-45.05770869433144
 20
12.0534828622049
 40
0.7717997786796362
 50
321.8795802028439
 51
398.1204197971596
 73
     1
 72
     2
 10
-44.85796865798525
 20
12.21021404032538
 40
0.5179085730135277
 50
38.12041979714349
 51
141.8795802028492
 73
     1
 97
        4
330
29C
330
29B
330
296
330
295
 75
     1
 76
     0
 52
45.0
 41
0.1
 77
     0
 78
     1
 53
45.0
 43
0.0
 44
0.0
 45
-0.0707106781186548
 46
0.0707106781186548
 79
     0
 98
        1
 10
0.0
 20
0.0
  0
HATCH
  5
2E4
330
71
100
AcDbEntity
  8
1
  6
Continuous
 62
     2
100
AcDbHatch
 10
0.0
 20
0.0
 30
0.0
210
0.0
220
0.0
230
1.0
  2
_USER
 70
     0
 71
     1
 91
        2
 92
        1
 93
        4
 72
     2
 10
-49.09985603061205
 20
8.694292386030583
 40
1.458034083651483
 50
117.548148175662
 51
242.451851824338
 73
     1
 72
     2
 10
-48.81891613877875
 20
9.232867396333887
 40
2.065479772208505
 50
242.4518518243404
 51
297.5481481756871
 73
     1
 72
     2
 10
-48.53797624694545
 20
8.694292386030583
 40
1.458034083652002
 50
297.548148175701
 51
422.451851824299
 73
     1
 72
     2
 10
-48.81891613877875
 20
8.15571737572779
 40
2.065479772208568
 50
62.45185182430637
 51
117.5481481756662
 73
     1
 97
        4
330
29A
330
297
330
299
330
298
 92
       16
 93
        4
 72
     2
 10
-48.81891613877875
 20
8.851023564151092
 40
0.5179085730132998
 50
38.12041979714704
 51
141.8795802028588
 73
     1
 72
     2
 10
-48.61917610243265
 20
8.694292386030583
 40
0.7717997786794633
 50
141.8795802028363
 51
218.1204197971687
 73
     1
 72
     2
 10
-48.81891613877875
 20
8.537561207910585
 40
0.5179085730137354
 50
218.1204197971931
 51
321.879580202801
 73
     1
 72
     2
 10
-49.01865617512516
 20
8.694292386030583
 40
0.7717997786796947
 50
321.8795802028417
 51
398.1204197971533
 73
     1
 97
        4
330
27D
330
27E
330
27F
330
27C
 75
     1
 76
     0
 52
45.0
 41
0.1
 77
     0
 78
     1
 53
45.0
 43
0.0
 44
0.0
 45
-0.0707106781186548
 46
0.0707106781186548
 79
     0
 98
        1
 10
0.0
 20
0.0
  0
HATCH
  5
2E5
330
71
100
AcDbEntity
  8
1
  6
Continuous
 62
     2
100
AcDbHatch
 10
0.0
 20
0.0
 30
0.0
210
0.0
220
0.0
230
1.0
  2
_USER
 70
     0
 71
     1
 91
        2
 92
        1
 93
        4
 72
     2
 10
-49.09985603061205
 20
8.694292386030583
 40
1.458034083651483
 50
117.548148175662
 51
242.451851824338
 73
     1
 72
     2
 10
-48.81891613877875
 20
9.232867396333887
 40
2.065479772208505
 50
242.4518518243404
 51
297.5481481756871
 73
     1
 72
     2
 10
-48.53797624694545
 20
8.694292386030583
 40
1.458034083652002
 50
297.548148175701
 51
422.451851824299
 73
     1
 72
     2
 10
-48.81891613877875
 20
8.15571737572779
 40
2.065479772208568
 50
62.45185182430637
 51
117.5481481756662
 73
     1
 97
        4
330
29A
330
297
330
299
330
298
 92
       16
 93
        4
 72
     2
 10
-48.81891613877875
 20
8.851023564151092
 40
0.5179085730132998
 50
38.12041979714704
 51
141.8795802028588
 73
     1
 72
     2
 10
-48.61917610243265
 20
8.694292386030583
 40
0.7717997786794633
 50
141.8795802028363
 51
218.1204197971687
 73
     1
 72
     2
 10
-48.81891613877875
 20
8.537561207910585
 40
0.5179085730137354
 50
218.1204197971931
 51
321.879580202801
 73
     1
 72
     2
 10
-49.01865617512516
 20
8.694292386030583
 40
0.7717997786796947
 50
321.8795802028417
 51
398.1204197971533
 73
     1
 97
        4
330
27D
330
27E
330
27F
330
27C
 75
     1
 76
     0
 52
45.0
 41
0.1
 77
     0
 78
     1
 53
45.0
 43
0.0
 44
0.0
 45
-0.0707106781186548
 46
0.0707106781186548
 79
     0
 98
        1
 10
0.0
 20
0.0
  0
HATCH
  5
2E6
330
71
100
AcDbEntity
  8
1
  6
Continuous
 62
     2
100
AcDbHatch
 10
0.0
 20
0.0
 30
0.0
210
0.0
220
0.0
230
1.0
  2
_USER
 70
     0
 71
     1
 91
        2
 92
        1
 93
        6
 72
     1
 10
-53.37473088517226
 20
13.58038762411078
 11
-53.37473088517226
 21
10.52657810029959
 72
     1
 10
-53.37473088517226
 20
10.52657810029959
 11
-52.13422647491814
 21
10.52657810029959
 72
     1
 10
-52.13422647491814
 20
10.52657810029959
 11
-52.13422647491814
 21
11.4696563414434
 72
     1
 10
-52.13422647491814
 20
11.4696563414434
 11
-51.37545888713785
 21
11.4696563414434
 72
     2
 10
-51.37545888713785
 20
12.52502198277711
 40
1.05536564133371
 50
270.0
 51
450.0
 73
     1
 72
     1
 10
-51.37545888713785
 20
13.58038762411078
 11
-53.37473088517226
 21
13.58038762411078
 97
        6
330
2A4
330
201
330
1F7
330
1F6
330
203
330
202
 92
       16
 93
        4
 72
     1
 10
-51.81693141337624
 20
12.91728177867068
 11
-52.13422647491814
 21
12.91728177867068
 72
     1
 10
-52.13422647491814
 20
12.91728177867068
 11
-52.13422647491814
 21
12.21155412932848
 72
     1
 10
-52.13422647491814
 20
12.21155412932848
 11
-51.81693141337624
 21
12.21155412932848
 72
     2
 10
-51.81693141337624
 20
12.5644179539996
 40
0.35286382467112
 50
270.0
 51
450.0
 73
     1
 97
        4
330
204
330
1F5
330
205
330
290
 75
     1
 76
     0
 52
45.0
 41
0.1
 77
     0
 78
     1
 53
45.0
 43
0.0
 44
0.0
 45
-0.0707106781186548
 46
0.0707106781186548
 79
     0
 98
        1
 10
0.0
 20
0.0
  0
HATCH
  5
2E7
330
71
100
AcDbEntity
  8
1
  6
Continuous
 62
     2
100
AcDbHatch
 10
0.0
 20
0.0
 30
0.0
210
0.0
220
0.0
230
1.0
  2
_USER
 70
     0
 71
     1
 91
        2
 92
        1
 93
        6
 72
     1
 10
-53.37473088517226
 20
13.58038762411078
 11
-53.37473088517226
 21
10.52657810029959
 72
     1
 10
-53.37473088517226
 20
10.52657810029959
 11
-52.13422647491814
 21
10.52657810029959
 72
     1
 10
-52.13422647491814
 20
10.52657810029959
 11
-52.13422647491814
 21
11.4696563414434
 72
     1
 10
-52.13422647491814
 20
11.4696563414434
 11
-51.37545888713785
 21
11.4696563414434
 72
     2
 10
-51.37545888713785
 20
12.52502198277711
 40
1.05536564133371
 50
270.0
 51
450.0
 73
     1
 72
     1
 10
-51.37545888713785
 20
13.58038762411078
 11
-53.37473088517226
 21
13.58038762411078
 97
        6
330
2A4
330
201
330
1F7
330
1F6
330
203
330
202
 92
       16
 93
        4
 72
     1
 10
-51.81693141337624
 20
12.91728177867068
 11
-52.13422647491814
 21
12.91728177867068
 72
     1
 10
-52.13422647491814
 20
12.91728177867068
 11
-52.13422647491814
 21
12.21155412932848
 72
     1
 10
-52.13422647491814
 20
12.21155412932848
 11
-51.81693141337624
 21
12.21155412932848
 72
     2
 10
-51.81693141337624
 20
12.5644179539996
 40
0.35286382467112
 50
270.0
 51
450.0
 73
     1
 97
        4
330
204
330
1F5
330
205
330
290
 75
     1
 76
     0
 52
45.0
 41
0.1
 77
     0
 78
     1
 53
45.0
 43
0.0
 44
0.0
 45
-0.0707106781186548
 46
0.0707106781186548
 79
     0
 98
        1
 10
0.0
 20
0.0
  0
HATCH
  5
2E8
330
71
100
AcDbEntity
  8
1
  6
Continuous
 62
     2
100
AcDbHatch
 10
0.0
 20
0.0
 30
0.0
210
0.0
220
0.0
230
1.0
  2
_USER
 70
     0
 71
     1
 91
        1
 92
        1
 93
       12
 72
     1
 10
-33.76044769073906
 20
13.58038762411078
 11
-32.35772347299184
 21
13.58038762411078
 72
     1
 10
-32.35772347299184
 20
13.58038762411078
 11
-33.66025310375835
 21
12.10743709407458
 72
     1
 10
-33.66025310375835
 20
12.10743709407458
 11
-32.26230005681805
 21
10.52657810029959
 72
     1
 10
-32.26230005681805
 20
10.52657810029959
 11
-33.66502427456635
 21
10.52657810029959
 72
     1
 10
-33.66502427456635
 20
10.52657810029959
 11
-34.36161521263185
 21
11.3143098855933
 72
     1
 10
-34.36161521263185
 20
11.3143098855933
 11
-35.05820615069754
 21
10.52657810029959
 72
     1
 10
-35.05820615069754
 20
10.52657810029959
 11
-36.46093036844576
 21
10.52657810029959
 72
     1
 10
-36.46093036844576
 20
10.52657810029959
 11
-35.06297732150546
 21
12.10743709407458
 72
     1
 10
-35.06297732150546
 20
12.10743709407458
 11
-36.36550695227294
 21
13.58038762411078
 72
     1
 10
-36.36550695227294
 20
13.58038762411078
 11
-34.96278273452364
 21
13.58038762411078
 72
     1
 10
-34.96278273452364
 20
13.58038762411078
 11
-34.36161521263185
 21
12.9005643025553
 72
     1
 10
-34.36161521263185
 20
12.9005643025553
 11
-33.76044769073906
 21
13.58038762411078
 97
       12
330
1D0
330
229
330
228
330
227
330
226
330
1D1
330
1D2
330
1CE
330
1CF
330
22C
330
22B
330
22A
 75
     1
 76
     0
 52
45.0
 41
0.1
 77
     0
 78
     1
 53
45.0
 43
0.0
 44
0.0
 45
-0.0707106781186548
 46
0.0707106781186548
 79
     0
 98
        1
 10
0.0
 20
0.0
  0
HATCH
  5
2E9
330
71
100
AcDbEntity
  8
1
  6
Continuous
 62
     2
100
AcDbHatch
 10
0.0
 20
0.0
 30
0.0
210
0.0
220
0.0
230
1.0
  2
_USER
 70
     0
 71
     1
 91
        1
 92
        1
 93
       12
 72
     1
 10
-33.76044769073906
 20
13.58038762411078
 11
-32.35772347299184
 21
13.58038762411078
 72
     1
 10
-32.35772347299184
 20
13.58038762411078
 11
-33.66025310375835
 21
12.10743709407458
 72
     1
 10
-33.66025310375835
 20
12.10743709407458
 11
-32.26230005681805
 21
10.52657810029959
 72
     1
 10
-32.26230005681805
 20
10.52657810029959
 11
-33.66502427456635
 21
10.52657810029959
 72
     1
 10
-33.66502427456635
 20
10.52657810029959
 11
-34.36161521263185
 21
11.3143098855933
 72
     1
 10
-34.36161521263185
 20
11.3143098855933
 11
-35.05820615069754
 21
10.52657810029959
 72
     1
 10
-35.05820615069754
 20
10.52657810029959
 11
-36.46093036844576
 21
10.52657810029959
 72
     1
 10
-36.46093036844576
 20
10.52657810029959
 11
-35.06297732150546
 21
12.10743709407458
 72
     1
 10
-35.06297732150546
 20
12.10743709407458
 11
-36.36550695227294
 21
13.58038762411078
 72
     1
 10
-36.36550695227294
 20
13.58038762411078
 11
-34.96278273452364
 21
13.58038762411078
 72
     1
 10
-34.96278273452364
 20
13.58038762411078
 11
-34.36161521263185
 21
12.9005643025553
 72
     1
 10
-34.36161521263185
 20
12.9005643025553
 11
-33.76044769073906
 21
13.58038762411078
 97
       12
330
1D0
330
229
330
228
330
227
330
226
330
1D1
330
1D2
330
1CE
330
1CF
330
22C
330
22B
330
22A
 75
     1
 76
     0
 52
45.0
 41
0.1
 77
     0
 78
     1
 53
45.0
 43
0.0
 44
0.0
 45
-0.0707106781186548
 46
0.0707106781186548
 79
     0
 98
        1
 10
0.0
 20
0.0
  0
HATCH
  5
2EA
330
71
100
AcDbEntity
  8
1
  6
Continuous
 62
     2
100
AcDbHatch
 10
0.0
 20
0.0
 30
0.0
210
0.0
220
0.0
230
1.0
  2
_USER
 70
     0
 71
     1
 91
        1
 92
        1
 93
        4
 72
     1
 10
-36.58020963866264
 20
13.58038762411078
 11
-36.58020963866264
 21
10.52657810029959
 72
     1
 10
-36.58020963866264
 20
10.52657810029959
 11
-37.82071404891553
 21
10.52657810029959
 72
     1
 10
-37.82071404891553
 20
10.52657810029959
 11
-37.82071404891553
 21
13.58038762411078
 72
     1
 10
-37.82071404891553
 20
13.58038762411078
 11
-36.58020963866264
 21
13.58038762411078
 97
        4
330
224
330
1D3
330
223
330
225
 75
     1
 76
     0
 52
45.0
 41
0.1
 77
     0
 78
     1
 53
45.0
 43
0.0
 44
0.0
 45
-0.0707106781186548
 46
0.0707106781186548
 79
     0
 98
        1
 10
0.0
 20
0.0
  0
HATCH
  5
2EB
330
71
100
AcDbEntity
  8
1
  6
Continuous
 62
     2
100
AcDbHatch
 10
0.0
 20
0.0
 30
0.0
210
0.0
220
0.0
230
1.0
  2
_USER
 70
     0
 71
     1
 91
        1
 92
        1
 93
        4
 72
     1
 10
-36.58020963866264
 20
13.58038762411078
 11
-36.58020963866264
 21
10.52657810029959
 72
     1
 10
-36.58020963866264
 20
10.52657810029959
 11
-37.82071404891553
 21
10.52657810029959
 72
     1
 10
-37.82071404891553
 20
10.52657810029959
 11
-37.82071404891553
 21
13.58038762411078
 72
     1
 10
-37.82071404891553
 20
13.58038762411078
 11
-36.58020963866264
 21
13.58038762411078
 97
        4
330
224
330
1D3
330
223
330
225
 75
     1
 76
     0
 52
45.0
 41
0.1
 77
     0
 78
     1
 53
45.0
 43
0.0
 44
0.0
 45
-0.0707106781186548
 46
0.0707106781186548
 79
     0
 98
        1
 10
0.0
 20
0.0
  0
HATCH
  5
2EC
330
71
100
AcDbEntity
  8
1
  6
Continuous
 62
     2
100
AcDbHatch
 10
0.0
 20
0.0
 30
0.0
210
0.0
220
0.0
230
1.0
  2
_USER
 70
     0
 71
     1
 91
        2
 92
        1
 93
        8
 72
     1
 10
-36.97065364219463
 20
7.167387624125297
 11
-38.21115805244855
 21
7.167387624125297
 72
     1
 10
-38.21115805244855
 20
7.167387624125297
 11
-38.42263810592434
 21
7.708348168343179
 72
     1
 10
-38.42263810592434
 20
7.708348168343179
 11
-39.55507968259815
 21
7.708348168343179
 72
     1
 10
-39.55507968259815
 20
7.708348168343179
 11
-39.76655973607396
 21
7.167387624125297
 72
     1
 10
-39.76655973607396
 20
7.167387624125297
 11
-41.00706414632694
 21
7.167387624125297
 72
     1
 10
-41.00706414632694
 20
7.167387624125297
 11
-39.60911109938763
 21
10.22119714793638
 72
     1
 10
-39.60911109938763
 20
10.22119714793638
 11
-38.36860668913494
 21
10.22119714793638
 72
     1
 10
-38.36860668913494
 20
10.22119714793638
 11
-36.97065364219463
 21
7.167387624125297
 97
        8
330
21F
330
1D9
330
21E
330
221
330
1D6
330
220
330
1D7
330
1D8
 92
       16
 93
        3
 72
     1
 10
-39.28902413145315
 20
8.388911433649781
 11
-38.68869365707064
 21
8.388911433649781
 72
     1
 10
-38.68869365707064
 20
8.388911433649781
 11
-38.98885889426074
 21
9.156726399636483
 72
     1
 10
-38.98885889426074
 20
9.156726399636483
 11
-39.28902413145315
 21
8.388911433649781
 97
        3
330
1D5
330
1D4
330
222
 75
     1
 76
     0
 52
45.0
 41
0.1
 77
     0
 78
     1
 53
45.0
 43
0.0
 44
0.0
 45
-0.0707106781186548
 46
0.0707106781186548
 79
     0
 98
        1
 10
0.0
 20
0.0
  0
HATCH
  5
2ED
330
71
100
AcDbEntity
  8
1
  6
Continuous
 62
     2
100
AcDbHatch
 10
0.0
 20
0.0
 30
0.0
210
0.0
220
0.0
230
1.0
  2
_USER
 70
     0
 71
     1
 91
        2
 92
        1
 93
        8
 72
     1
 10
-36.97065364219463
 20
7.167387624125297
 11
-38.21115805244855
 21
7.167387624125297
 72
     1
 10
-38.21115805244855
 20
7.167387624125297
 11
-38.42263810592434
 21
7.708348168343179
 72
     1
 10
-38.42263810592434
 20
7.708348168343179
 11
-39.55507968259815
 21
7.708348168343179
 72
     1
 10
-39.55507968259815
 20
7.708348168343179
 11
-39.76655973607396
 21
7.167387624125297
 72
     1
 10
-39.76655973607396
 20
7.167387624125297
 11
-41.00706414632694
 21
7.167387624125297
 72
     1
 10
-41.00706414632694
 20
7.167387624125297
 11
-39.60911109938763
 21
10.22119714793638
 72
     1
 10
-39.60911109938763
 20
10.22119714793638
 11
-38.36860668913494
 21
10.22119714793638
 72
     1
 10
-38.36860668913494
 20
10.22119714793638
 11
-36.97065364219463
 21
7.167387624125297
 97
        8
330
21F
330
1D9
330
21E
330
221
330
1D6
330
220
330
1D7
330
1D8
 92
       16
 93
        3
 72
     1
 10
-39.28902413145315
 20
8.388911433649781
 11
-38.68869365707064
 21
8.388911433649781
 72
     1
 10
-38.68869365707064
 20
8.388911433649781
 11
-38.98885889426074
 21
9.156726399636483
 72
     1
 10
-38.98885889426074
 20
9.156726399636483
 11
-39.28902413145315
 21
8.388911433649781
 97
        3
330
1D5
330
1D4
330
222
 75
     1
 76
     0
 52
45.0
 41
0.1
 77
     0
 78
     1
 53
45.0
 43
0.0
 44
0.0
 45
-0.0707106781186548
 46
0.0707106781186548
 79
     0
 98
        1
 10
0.0
 20
0.0
  0
HATCH
  5
2EE
330
71
100
AcDbEntity
  8
1
  6
Continuous
 62
     2
100
AcDbHatch
 10
0.0
 20
0.0
 30
0.0
210
0.0
220
0.0
230
1.0
  2
_USER
 70
     0
 71
     1
 91
        1
 92
        1
 93
        8
 72
     1
 10
-43.16457628550916
 20
10.22119714793638
 11
-43.16457628550916
 21
9.435931841812788
 72
     1
 10
-43.16457628550916
 20
9.435931841812788
 11
-42.35347724803455
 21
9.435931841812788
 72
     1
 10
-42.35347724803455
 20
9.435931841812788
 11
-42.35347724803455
 21
7.167387624125297
 72
     1
 10
-42.35347724803455
 20
7.167387624125297
 11
-41.16068454586804
 21
7.167387624125297
 72
     1
 10
-41.16068454586804
 20
7.167387624125297
 11
-41.16068454586804
 21
9.435931841812788
 72
     1
 10
-41.16068454586804
 20
9.435931841812788
 11
-40.34958550839554
 21
9.435931841812788
 72
     1
 10
-40.34958550839554
 20
9.435931841812788
 11
-40.34958550839554
 21
10.22119714793638
 72
     1
 10
-40.34958550839554
 20
10.22119714793638
 11
-43.16457628550916
 21
10.22119714793638
 97
        8
330
21B
330
21A
330
219
330
1DA
330
1DB
330
21D
330
1DC
330
21C
 75
     1
 76
     0
 52
45.0
 41
0.1
 77
     0
 78
     1
 53
45.0
 43
0.0
 44
0.0
 45
-0.0707106781186548
 46
0.0707106781186548
 79
     0
 98
        1
 10
0.0
 20
0.0
  0
HATCH
  5
2EF
330
71
100
AcDbEntity
  8
1
  6
Continuous
 62
     2
100
AcDbHatch
 10
0.0
 20
0.0
 30
0.0
210
0.0
220
0.0
230
1.0
  2
_USER
 70
     0
 71
     1
 91
        1
 92
        1
 93
        8
 72
     1
 10
-43.16457628550916
 20
10.22119714793638
 11
-43.16457628550916
 21
9.435931841812788
 72
     1
 10
-43.16457628550916
 20
9.435931841812788
 11
-42.35347724803455
 21
9.435931841812788
 72
     1
 10
-42.35347724803455
 20
9.435931841812788
 11
-42.35347724803455
 21
7.167387624125297
 72
     1
 10
-42.35347724803455
 20
7.167387624125297
 11
-41.16068454586804
 21
7.167387624125297
 72
     1
 10
-41.16068454586804
 20
7.167387624125297
 11
-41.16068454586804
 21
9.435931841812788
 72
     1
 10
-41.16068454586804
 20
9.435931841812788
 11
-40.34958550839554
 21
9.435931841812788
 72
     1
 10
-40.34958550839554
 20
9.435931841812788
 11
-40.34958550839554
 21
10.22119714793638
 72
     1
 10
-40.34958550839554
 20
10.22119714793638
 11
-43.16457628550916
 21
10.22119714793638
 97
        8
330
21B
330
21A
330
219
330
1DA
330
1DB
330
21D
330
1DC
330
21C
 75
     1
 76
     0
 52
45.0
 41
0.1
 77
     0
 78
     1
 53
45.0
 43
0.0
 44
0.0
 45
-0.0707106781186548
 46
0.0707106781186548
 79
     0
 98
        1
 10
0.0
 20
0.0
  0
HATCH
  5
2F0
330
71
100
AcDbEntity
  8
1
  6
Continuous
 62
     2
100
AcDbHatch
 10
0.0
 20
0.0
 30
0.0
210
0.0
220
0.0
230
1.0
  2
_USER
 70
     0
 71
     1
 91
        1
 92
        1
 93
       10
 72
     1
 10
-40.49256970177004
 20
13.58038762411078
 11
-41.68536240393655
 21
13.58038762411078
 72
     1
 10
-41.68536240393655
 20
13.58038762411078
 11
-41.68536240393655
 21
10.52657810029959
 72
     1
 10
-41.68536240393655
 20
10.52657810029959
 11
-40.49256970177004
 21
10.52657810029959
 72
     1
 10
-40.49256970177004
 20
10.52657810029959
 11
-40.49256970177004
 21
11.83535361050429
 72
     1
 10
-40.49256970177004
 20
11.83535361050429
 11
-39.25206529151603
 21
10.52657810029959
 72
     1
 10
-39.25206529151603
 20
10.52657810029959
 11
-38.05927258934943
 21
10.52657810029959
 72
     1
 10
-38.05927258934943
 20
10.52657810029959
 11
-38.05927258934943
 21
13.58038762411078
 72
     1
 10
-38.05927258934943
 20
13.58038762411078
 11
-39.25206529151603
 21
13.58038762411078
 72
     1
 10
-39.25206529151603
 20
13.58038762411078
 11
-39.25206529151603
 21
12.2716121139056
 72
     1
 10
-39.25206529151603
 20
12.2716121139056
 11
-40.49256970177004
 21
13.58038762411078
 97
       10
330
215
330
1DF
330
1E0
330
1E1
330
1E2
330
218
330
1DD
330
217
330
216
330
1DE
 75
     1
 76
     0
 52
45.0
 41
0.1
 77
     0
 78
     1
 53
45.0
 43
0.0
 44
0.0
 45
-0.0707106781186548
 46
0.0707106781186548
 79
     0
 98
        1
 10
0.0
 20
0.0
  0
HATCH
  5
2F1
330
71
100
AcDbEntity
  8
1
  6
Continuous
 62
     2
100
AcDbHatch
 10
0.0
 20
0.0
 30
0.0
210
0.0
220
0.0
230
1.0
  2
_USER
 70
     0
 71
     1
 91
        1
 92
        1
 93
       10
 72
     1
 10
-40.49256970177004
 20
13.58038762411078
 11
-41.68536240393655
 21
13.58038762411078
 72
     1
 10
-41.68536240393655
 20
13.58038762411078
 11
-41.68536240393655
 21
10.52657810029959
 72
     1
 10
-41.68536240393655
 20
10.52657810029959
 11
-40.49256970177004
 21
10.52657810029959
 72
     1
 10
-40.49256970177004
 20
10.52657810029959
 11
-40.49256970177004
 21
11.83535361050429
 72
     1
 10
-40.49256970177004
 20
11.83535361050429
 11
-39.25206529151603
 21
10.52657810029959
 72
     1
 10
-39.25206529151603
 20
10.52657810029959
 11
-38.05927258934943
 21
10.52657810029959
 72
     1
 10
-38.05927258934943
 20
10.52657810029959
 11
-38.05927258934943
 21
13.58038762411078
 72
     1
 10
-38.05927258934943
 20
13.58038762411078
 11
-39.25206529151603
 21
13.58038762411078
 72
     1
 10
-39.25206529151603
 20
13.58038762411078
 11
-39.25206529151603
 21
12.2716121139056
 72
     1
 10
-39.25206529151603
 20
12.2716121139056
 11
-40.49256970177004
 21
13.58038762411078
 97
       10
330
215
330
1DF
330
1E0
330
1E1
330
1E2
330
218
330
1DD
330
217
330
216
330
1DE
 75
     1
 76
     0
 52
45.0
 41
0.1
 77
     0
 78
     1
 53
45.0
 43
0.0
 44
0.0
 45
-0.0707106781186548
 46
0.0707106781186548
 79
     0
 98
        1
 10
0.0
 20
0.0
  0
HATCH
  5
2F2
330
71
100
AcDbEntity
  8
1
  6
Continuous
 62
     2
100
AcDbHatch
 10
0.0
 20
0.0
 30
0.0
210
0.0
220
0.0
230
1.0
  2
_USER
 70
     0
 71
     1
 91
        1
 92
        1
 93
       10
 72
     1
 10
-45.74100852218865
 20
10.22119714793638
 11
-46.93380122435625
 21
10.22119714793638
 72
     1
 10
-46.93380122435625
 20
10.22119714793638
 11
-46.93380122435625
 21
7.167387624125297
 72
     1
 10
-46.93380122435625
 20
7.167387624125297
 11
-45.74100852218865
 21
7.167387624125297
 72
     1
 10
-45.74100852218865
 20
7.167387624125297
 11
-45.74100852218865
 21
8.47616313432988
 72
     1
 10
-45.74100852218865
 20
8.47616313432988
 11
-44.50050411193575
 21
7.167387624125297
 72
     1
 10
-44.50050411193575
 20
7.167387624125297
 11
-43.30771140976935
 21
7.167387624125297
 72
     1
 10
-43.30771140976935
 20
7.167387624125297
 11
-43.30771140976935
 21
10.22119714793638
 72
     1
 10
-43.30771140976935
 20
10.22119714793638
 11
-44.50050411193575
 21
10.22119714793638
 72
     1
 10
-44.50050411193575
 20
10.22119714793638
 11
-44.50050411193575
 21
8.912421637731285
 72
     1
 10
-44.50050411193575
 20
8.912421637731285
 11
-45.74100852218865
 21
10.22119714793638
 97
       10
330
1E4
330
1E5
330
1E6
330
212
330
1E7
330
1E8
330
211
330
214
330
213
330
1E3
 75
     1
 76
     0
 52
45.0
 41
0.1
 77
     0
 78
     1
 53
45.0
 43
0.0
 44
0.0
 45
-0.0707106781186548
 46
0.0707106781186548
 79
     0
 98
        1
 10
0.0
 20
0.0
  0
HATCH
  5
2F3
330
71
100
AcDbEntity
  8
1
  6
Continuous
 62
     2
100
AcDbHatch
 10
0.0
 20
0.0
 30
0.0
210
0.0
220
0.0
230
1.0
  2
_USER
 70
     0
 71
     1
 91
        1
 92
        1
 93
       10
 72
     1
 10
-45.74100852218865
 20
10.22119714793638
 11
-46.93380122435625
 21
10.22119714793638
 72
     1
 10
-46.93380122435625
 20
10.22119714793638
 11
-46.93380122435625
 21
7.167387624125297
 72
     1
 10
-46.93380122435625
 20
7.167387624125297
 11
-45.74100852218865
 21
7.167387624125297
 72
     1
 10
-45.74100852218865
 20
7.167387624125297
 11
-45.74100852218865
 21
8.47616313432988
 72
     1
 10
-45.74100852218865
 20
8.47616313432988
 11
-44.50050411193575
 21
7.167387624125297
 72
     1
 10
-44.50050411193575
 20
7.167387624125297
 11
-43.30771140976935
 21
7.167387624125297
 72
     1
 10
-43.30771140976935
 20
7.167387624125297
 11
-43.30771140976935
 21
10.22119714793638
 72
     1
 10
-43.30771140976935
 20
10.22119714793638
 11
-44.50050411193575
 21
10.22119714793638
 72
     1
 10
-44.50050411193575
 20
10.22119714793638
 11
-44.50050411193575
 21
8.912421637731285
 72
     1
 10
-44.50050411193575
 20
8.912421637731285
 11
-45.74100852218865
 21
10.22119714793638
 97
       10
330
1E4
330
1E5
330
1E6
330
212
330
1E7
330
1E8
330
211
330
214
330
213
330
1E3
 75
     1
 76
     0
 52
45.0
 41
0.1
 77
     0
 78
     1
 53
45.0
 43
0.0
 44
0.0
 45
-0.0707106781186548
 46
0.0707106781186548
 79
     0
 98
        1
 10
0.0
 20
0.0
  0
HATCH
  5
2F4
330
71
100
AcDbEntity
  8
1
  6
Continuous
 62
     2
100
AcDbHatch
 10
0.0
 20
0.0
 30
0.0
210
0.0
220
0.0
230
1.0
  2
_USER
 70
     0
 71
     1
 91
        1
 92
        1
 93
       12
 72
     1
 10
-46.74280346112406
 20
13.58038762411078
 11
-46.74280346112406
 21
10.52657810029959
 72
     1
 10
-46.74280346112406
 20
10.52657810029959
 11
-47.93559616329046
 21
10.52657810029959
 72
     1
 10
-47.93559616329046
 20
10.52657810029959
 11
-47.93559616329046
 21
11.66085020914341
 72
     1
 10
-47.93559616329046
 20
11.66085020914341
 11
-48.98525374119794
 21
11.66085020914341
 72
     1
 10
-48.98525374119794
 20
11.66085020914341
 11
-48.98525374119794
 21
10.52657810029959
 72
     1
 10
-48.98525374119794
 20
10.52657810029959
 11
-50.17804644336454
 21
10.52657810029959
 72
     1
 10
-50.17804644336454
 20
10.52657810029959
 11
-50.17804644336454
 21
13.58038762411078
 72
     1
 10
-50.17804644336454
 20
13.58038762411078
 11
-48.98525374119794
 21
13.58038762411078
 72
     1
 10
-48.98525374119794
 20
13.58038762411078
 11
-48.98525374119794
 21
12.51155429077619
 72
     1
 10
-48.98525374119794
 20
12.51155429077619
 11
-47.93559616329046
 21
12.51155429077619
 72
     1
 10
-47.93559616329046
 20
12.51155429077619
 11
-47.93559616329046
 21
13.58038762411078
 72
     1
 10
-47.93559616329046
 20
13.58038762411078
 11
-46.74280346112406
 21
13.58038762411078
 97
       12
330
20C
330
20B
330
20A
330
1F2
330
1F3
330
209
330
1F4
330
208
330
207
330
206
330
1F0
330
1F1
 75
     1
 76
     0
 52
45.0
 41
0.1
 77
     0
 78
     1
 53
45.0
 43
0.0
 44
0.0
 45
-0.0707106781186548
 46
0.0707106781186548
 79
     0
 98
        1
 10
0.0
 20
0.0
  0
HATCH
  5
2F5
330
71
100
AcDbEntity
  8
1
  6
Continuous
 62
     2
100
AcDbHatch
 10
0.0
 20
0.0
 30
0.0
210
0.0
220
0.0
230
1.0
  2
_USER
 70
     0
 71
     1
 91
        1
 92
        1
 93
       12
 72
     1
 10
-46.74280346112406
 20
13.58038762411078
 11
-46.74280346112406
 21
10.52657810029959
 72
     1
 10
-46.74280346112406
 20
10.52657810029959
 11
-47.93559616329046
 21
10.52657810029959
 72
     1
 10
-47.93559616329046
 20
10.52657810029959
 11
-47.93559616329046
 21
11.66085020914341
 72
     1
 10
-47.93559616329046
 20
11.66085020914341
 11
-48.98525374119794
 21
11.66085020914341
 72
     1
 10
-48.98525374119794
 20
11.66085020914341
 11
-48.98525374119794
 21
10.52657810029959
 72
     1
 10
-48.98525374119794
 20
10.52657810029959
 11
-50.17804644336454
 21
10.52657810029959
 72
     1
 10
-50.17804644336454
 20
10.52657810029959
 11
-50.17804644336454
 21
13.58038762411078
 72
     1
 10
-50.17804644336454
 20
13.58038762411078
 11
-48.98525374119794
 21
13.58038762411078
 72
     1
 10
-48.98525374119794
 20
13.58038762411078
 11
-48.98525374119794
 21
12.51155429077619
 72
     1
 10
-48.98525374119794
 20
12.51155429077619
 11
-47.93559616329046
 21
12.51155429077619
 72
     1
 10
-47.93559616329046
 20
12.51155429077619
 11
-47.93559616329046
 21
13.58038762411078
 72
     1
 10
-47.93559616329046
 20
13.58038762411078
 11
-46.74280346112406
 21
13.58038762411078
 97
       12
330
20C
330
20B
330
20A
330
1F2
330
1F3
330
209
330
1F4
330
208
330
207
330
206
330
1F0
330
1F1
 75
     1
 76
     0
 52
45.0
 41
0.1
 77
     0
 78
     1
 53
45.0
 43
0.0
 44
0.0
 45
-0.0707106781186548
 46
0.0707106781186548
 79
     0
 98
        1
 10
0.0
 20
0.0
  0
ENDBLK
  5
73
330
71
100
AcDbEntity
  8
0
100
AcDbBlockEnd
  0
BLOCK
  5
75
330
74
100
AcDbEntity
  8
0
100
AcDbBlockBegin
  2
_punkt
 70
     0
 10
65.13450035266486
 20
-0.12611237589101
 30
0.0
  3
_punkt
  1

  0
LINE
  5
2F6
330
74
100
AcDbEntity
  8
1
  6
Continuous
 62
     2
100
AcDbLine
 10
65.13450035266486
 20
-0.12611237589101
 30
0.0
 11
65.13450035266486
 21
-5.12611237589113
 31
0.0
  0
LINE
  5
2F7
330
74
100
AcDbEntity
  8
1
  6
Continuous
 62
     2
100
AcDbLine
 10
65.13450035266486
 20
-0.12611237589101
 30
0.0
 11
70.13450035266385
 21
-0.12611237589101
 31
0.0
  0
ENDBLK
  5
76
330
74
100
AcDbEntity
  8
0
100
AcDbBlockEnd
  0
BLOCK
  5
7A
330
77
100
AcDbEntity
  8
0
100
AcDbBlockBegin
  2
A4I_CS
 70
     0
 10
65.13450035266486
 20
-5.12611237589113
 30
0.0
  3
A4I_CS
  1

  0
INSERT
  5
78
330
77
100
AcDbEntity
  8
1
100
AcDbBlockReference
  2
_rahmen
 10
65.13450035266486
 20
-5.12611237589113
 30
0.0
  0
INSERT
  5
79
330
77
100
AcDbEntity
  8
1
100
AcDbBlockReference
  2
_punkt
 10
65.13450035266486
 20
-0.12611237589101
 30
0.0
  0
ENDBLK
  5
7B
330
77
100
AcDbEntity
  8
0
100
AcDbBlockEnd
  0
BLOCK
  5
84
330
7C
100
AcDbEntity
  8
0
100
AcDbBlockBegin
  2
1
 70
     0
 10
0.0
 20
0.0
 30
0.0
  3
1
  1

  0
INSERT
  5
7D
330
7C
100
AcDbEntity
  8
0
100
AcDbBlockReference
  2
Allg1
 10
6.00000000000722
 20
72.99999999999704
 30
0.0
  0
INSERT
  5
7E
330
7C
100
AcDbEntity
  8
0
100
AcDbBlockReference
  2
Drfsicht1
 10
-124.0999994277878
 20
72.99999963044408
 30
0.0
  0
INSERT
  5
7F
330
7C
100
AcDbEntity
  8
0
100
AcDbBlockReference
  2
Rckans1
 10
-4.87152957221531
 20
140.47153
 30
0.0
  0
INSERT
  5
80
330
7C
100
AcDbEntity
  8
0
100
AcDbBlockReference
  2
SA_Links1
 10
-65.87847
 20
140.47153
 30
0.0
  0
INSERT
  5
81
330
7C
100
AcDbEntity
  8
0
100
AcDbBlockReference
  2
SA_Rechts1
 10
-198.1999988555954
 20
144.0
 30
0.0
  0
INSERT
  5
82
330
7C
100
AcDbEntity
  8
0
100
AcDbBlockReference
  2
Vordans1
 10
-124.0999994277878
 20
144.0
 30
0.0
  0
INSERT
  5
83
330
7C
100
AcDbEntity
  8
0
100
AcDbBlockReference
  2
A4I_CS
 10
65.13450035266486
 20
-5.12611237589113
 30
0.0
  0
ENDBLK
  5
85
330
7C
100
AcDbEntity
  8
0
100
AcDbBlockEnd
  0
BLOCK
  5
118
330
10F
100
AcDbEntity
  8
0
100
AcDbBlockBegin
  2
*D17
 70
     1
 10
0.0
 20
0.0
 30
0.0
  3
*D17
  1

  0
LINE
  5
110
330
10F
100
AcDbEntity
  8
1
  6
Continuous
 62
     2
100
AcDbLine
 10
-170.2000001547852
 20
80.3999996900202
 30
0.0
 11
-170.2000001547663
 21
73.3999996900202
 31
0.0
  0
LINE
  5
111
330
10F
100
AcDbEntity
  8
1
  6
Continuous
 62
     2
100
AcDbLine
 10
-170.2000001547663
 20
73.3999996900202
 30
0.0
 11
-170.2000001547642
 21
72.59999969002018
 31
0.0
  0
LINE
  5
112
330
10F
100
AcDbEntity
  8
1
  6
Continuous
 62
     2
100
AcDbLine
 10
-170.2000001547642
 20
72.59999969002018
 30
0.0
 11
-170.2000001547453
 21
65.59999969002018
 31
0.0
  0
LINE
  5
113
330
10F
100
AcDbEntity
  8
1
  6
Continuous
 62
     2
100
AcDbLine
 10
-160.2000001547663
 20
73.3999996900472
 30
0.0
 11
-171.7000001547663
 21
73.39999969001614
 31
0.0
  0
LINE
  5
114
330
10F
100
AcDbEntity
  8
1
  6
Continuous
 62
     2
100
AcDbLine
 10
-160.2000001547642
 20
72.59999969004718
 30
0.0
 11
-171.7000001547642
 21
72.59999969001613
 31
0.0
  0
SOLID
  5
115
330
10F
100
AcDbEntity
  8
1
 62
     2
100
AcDbTrace
 10
-170.6607838963222
 20
76.8999996900202
 30
0.0
 11
-169.7392164132104
 21
76.8999996900202
 31
0.0
 12
-170.2000001547663
 22
73.3999996900202
 32
0.0
 13
-170.2000001547663
 23
73.3999996900202
 33
0.0
  0
SOLID
  5
116
330
10F
100
AcDbEntity
  8
1
 62
     2
100
AcDbTrace
 10
-169.7392164132083
 20
69.09999969002018
 30
0.0
 11
-170.66078389632
 21
69.09999969002018
 31
0.0
 12
-170.2000001547642
 22
72.59999969002018
 32
0.0
 13
-170.2000001547642
 23
72.59999969002018
 33
0.0
  0
MTEXT
  5
117
330
10F
100
AcDbEntity
  8
1
 62
     3
100
AcDbMText
 10
-175.2000001547752
 20
76.70293911986172
 30
0.0
 40
3.5
 41
0.0
 71
     7
 72
     1
  1
0,8
  7
CONVERTER_11
 11
0.0
 21
1.0
 31
0.0
 73
     1
 44
0.60024009603842
  0
ENDBLK
  5
119
330
10F
100
AcDbEntity
  8
0
100
AcDbBlockEnd
  0
BLOCK
  5
1B0
330
1A9
100
AcDbEntity
  8
0
100
AcDbBlockBegin
  2
*D18
 70
     1
 10
0.0
 20
0.0
 30
0.0
  3
*D18
  1

  0
LINE
  5
1AA
330
1A9
100
AcDbEntity
  8
1
  6
Continuous
 62
     2
100
AcDbLine
 10
-88.00000015476876
 20
115.8429165939007
 30
0.0
 11
-160.2000001547694
 21
115.8429165939007
 31
0.0
  0
LINE
  5
1AB
330
1A9
100
AcDbEntity
  8
1
  6
Continuous
 62
     2
100
AcDbLine
 10
-88.00000015476876
 20
132.4749994803801
 30
0.0
 11
-88.00000015476876
 21
113.8429165939007
 31
0.0
  0
LINE
  5
1AC
330
1A9
100
AcDbEntity
  8
1
  6
Continuous
 62
     2
100
AcDbLine
 10
-160.2000001547694
 20
129.4749994803995
 30
0.0
 11
-160.2000001547694
 21
113.8429165939007
 31
0.0
  0
SOLID
  5
1AD
330
1A9
100
AcDbEntity
  8
1
 62
     2
100
AcDbTrace
 10
-91.50000015476876
 20
115.3821328523448
 30
0.0
 11
-91.50000015476876
 21
116.3037003354566
 31
0.0
 12
-88.00000015476876
 22
115.8429165939007
 32
0.0
 13
-88.00000015476876
 23
115.8429165939007
 33
0.0
  0
SOLID
  5
1AE
330
1A9
100
AcDbEntity
  8
1
 62
     2
100
AcDbTrace
 10
-156.7000001547694
 20
116.3037003354566
 30
0.0
 11
-156.7000001547694
 21
115.3821328523448
 31
0.0
 12
-160.2000001547694
 22
115.8429165939007
 32
0.0
 13
-160.2000001547694
 23
115.8429165939007
 33
0.0
  0
MTEXT
  5
1AF
330
1A9
100
AcDbEntity
  8
1
 62
     3
100
AcDbMText
 10
-127.4676214120508
 20
118.1929165939007
 30
0.0
 40
3.5
 41
0.0
 71
     7
 72
     1
  1
72,2
  7
CONVERTER_11
 11
0.9999999999970619
 21
2.424068405545306E-6
 31
0.0
 73
     1
 44
0.60024009603842
  0
ENDBLK
  5
1B1
330
1A9
100
AcDbEntity
  8
0
100
AcDbBlockEnd
  0
BLOCK
  5
1BB
330
1B4
100
AcDbEntity
  8
0
100
AcDbBlockBegin
  2
*D19
 70
     1
 10
0.0
 20
0.0
 30
0.0
  3
*D19
  1

  0
LINE
  5
1B5
330
1B4
100
AcDbEntity
  8
1
  6
Continuous
 62
     2
100
AcDbLine
 10
-170.9427150854462
 20
158.524999480374
 30
0.0
 11
-170.9427150854462
 21
129.4749994803995
 31
0.0
  0
LINE
  5
1B6
330
1B4
100
AcDbEntity
  8
1
  6
Continuous
 62
     2
100
AcDbLine
 10
-158.9433965198494
 20
158.524999480374
 30
0.0
 11
-172.4427150854462
 21
158.524999480374
 31
0.0
  0
LINE
  5
1B7
330
1B4
100
AcDbEntity
  8
1
  6
Continuous
 62
     2
100
AcDbLine
 10
-160.2000001547694
 20
129.4749994803995
 30
0.0
 11
-172.4427150854462
 21
129.4749994803995
 31
0.0
  0
SOLID
  5
1B8
330
1B4
100
AcDbEntity
  8
1
 62
     2
100
AcDbTrace
 10
-170.4819313438903
 20
155.024999480374
 30
0.0
 11
-171.4034988270021
 21
155.024999480374
 31
0.0
 12
-170.9427150854462
 22
158.524999480374
 32
0.0
 13
-170.9427150854462
 23
158.524999480374
 33
0.0
  0
SOLID
  5
1B9
330
1B4
100
AcDbEntity
  8
1
 62
     2
100
AcDbTrace
 10
-171.4034988270021
 20
132.9749994803995
 30
0.0
 11
-170.4819313438903
 21
132.9749994803995
 31
0.0
 12
-170.9427150854462
 22
129.4749994803995
 32
0.0
 13
-170.9427150854462
 23
129.4749994803995
 33
0.0
  0
MTEXT
  5
1BA
330
1B4
100
AcDbEntity
  8
1
 62
     3
100
AcDbMText
 10
-172.7927150854462
 20
139.978857096999
 30
0.0
 40
3.5
 41
0.0
 71
     7
 72
     1
  1
29,1
  7
CONVERTER_11
 11
0.0
 21
1.0
 31
0.0
 73
     1
 44
0.60024009603842
  0
ENDBLK
  5
1BC
330
1B4
100
AcDbEntity
  8
0
100
AcDbBlockEnd
  0
ENDSEC
  0
SECTION
  2
ENTITIES
  0
INSERT
  5
86
330
1F
100
AcDbEntity
  8
1
100
AcDbBlockReference
  2
1
 10
0.0
 20
0.0
 30
0.0
  0
ENDSEC
  0
SECTION
  2
OBJECTS
  0
DICTIONARY
  5
C
330
0
100
AcDbDictionary
281
     1
  3
ACAD_GROUP
350
D
  3
ACAD_LAYOUT
350
1A
  3
ACAD_MATERIAL
350
3B
  3
ACAD_MLEADERSTYLE
350
31F
  3
ACAD_MLINESTYLE
350
17
  3
ACAD_PLOTSETTINGS
350
19
  3
ACAD_PLOTSTYLENAME
350
E
  3
ACAD_TABLESTYLE
350
31E
  3
ACAD_VISUALSTYLE
350
2A
  0
DICTIONARY
  5
D
102
{ACAD_REACTORS
330
C
102
}
330
C
100
AcDbDictionary
281
     1
  0
DICTIONARY
  5
1A
102
{ACAD_REACTORS
330
C
102
}
330
C
100
AcDbDictionary
281
     1
  3
Layout1
350
1E
  3
Layout2
350
26
  3
Model
350
22
  0
DICTIONARY
  5
3B
102
{ACAD_REACTORS
330
C
102
}
330
C
100
AcDbDictionary
281
     1
  3
ByBlock
350
3D
  3
ByLayer
350
3C
  3
Global
350
3E
  0
DICTIONARY
  5
31F
102
{ACAD_REACTORS
330
C
102
}
330
C
100
AcDbDictionary
281
     1
  0
DICTIONARY
  5
17
102
{ACAD_REACTORS
330
C
102
}
330
C
100
AcDbDictionary
281
     1
  3
Standard
350
18
  0
DICTIONARY
  5
19
102
{ACAD_REACTORS
330
C
102
}
330
C
100
AcDbDictionary
281
     1
  0
ACDBDICTIONARYWDFLT
  5
E
102
{ACAD_REACTORS
330
C
102
}
330
C
100
AcDbDictionary
281
     1
  3
Normal
350
F
100
AcDbDictionaryWithDefault
340
F
  0
DICTIONARY
  5
31E
102
{ACAD_REACTORS
330
C
102
}
330
C
100
AcDbDictionary
281
     1
  0
DICTIONARY
  5
2A
102
{ACAD_REACTORS
330
C
102
}
330
C
100
AcDbDictionary
281
     1
  3
2dWireframe
350
2F
  3
3D Hidden
350
31
  3
3dWireframe
350
30
  3
Basic
350
32
  3
Brighten
350
36
  3
ColorChange
350
3A
  3
Conceptual
350
34
  3
Dim
350
35
  3
Facepattern
350
39
  3
Flat
350
2B
  3
FlatWithEdges
350
2C
  3
Gouraud
350
2D
  3
GouraudWithEdges
350
2E
  3
Linepattern
350
38
  3
Realistic
350
33
  3
Thicken
350
37
  0
LAYOUT
  5
1E
102
{ACAD_REACTORS
330
1A
102
}
330
1A
100
AcDbPlotSettings
  1

  2
none_device
  4

  6

 40
0.0
 41
0.0
 42
0.0
 43
0.0
 44
0.0
 45
0.0
 46
0.0
 47
0.0
 48
0.0
 49
0.0
140
0.0
141
0.0
142
1.0
143
1.0
 70
   688
 72
     0
 73
     0
 74
     5
  7

 75
    16
 76
     0
 77
     2
 78
   300
147
1.0
148
0.0
149
0.0
100
AcDbLayout
  1
Layout1
 70
     1
 71
     1
 10
0.0
 20
0.0
 11
12.0
 21
9.0
 12
0.0
 22
0.0
 32
0.0
 14
1.00000000000000E+20
 24
1.00000000000000E+20
 34
1.00000000000000E+20
 15
-1.00000000000000E+20
 25
-1.00000000000000E+20
 35
-1.00000000000000E+20
146
0.0
 13
0.0
 23
0.0
 33
0.0
 16
1.0
 26
0.0
 36
0.0
 17
0.0
 27
1.0
 37
0.0
 76
     0
330
1B
  0
LAYOUT
  5
26
102
{ACAD_REACTORS
330
1A
102
}
330
1A
100
AcDbPlotSettings
  1

  2
none_device
  4

  6

 40
0.0
 41
0.0
 42
0.0
 43
0.0
 44
0.0
 45
0.0
 46
0.0
 47
0.0
 48
0.0
 49
0.0
140
0.0
141
0.0
142
1.0
143
1.0
 70
   688
 72
     0
 73
     0
 74
     5
  7

 75
    16
 76
     0
 77
     2
 78
   300
147
1.0
148
0.0
149
0.0
100
AcDbLayout
  1
Layout2
 70
     1
 71
     2
 10
0.0
 20
0.0
 11
0.0
 21
0.0
 12
0.0
 22
0.0
 32
0.0
 14
0.0
 24
0.0
 34
0.0
 15
0.0
 25
0.0
 35
0.0
146
0.0
 13
0.0
 23
0.0
 33
0.0
 16
1.0
 26
0.0
 36
0.0
 17
0.0
 27
1.0
 37
0.0
 76
     0
330
23
  0
LAYOUT
  5
22
102
{ACAD_REACTORS
330
1A
102
}
330
1A
100
AcDbPlotSettings
  1

  2
none_device
  4

  6

 40
0.0
 41
0.0
 42
0.0
 43
0.0
 44
0.0
 45
0.0
 46
0.0
 47
0.0
 48
0.0
 49
0.0
140
0.0
141
0.0
142
1.0
143
1.0
 70
  1712
 72
     0
 73
     0
 74
     0
  7

 75
     0
 76
     0
 77
     2
 78
   300
147
1.0
148
0.0
149
0.0
100
AcDbLayout
  1
Model
 70
     1
 71
     0
 10
0.0
 20
0.0
 11
12.0
 21
9.0
 12
0.0
 22
0.0
 32
0.0
 14
-226.8654996473342
 24
-5.12611237589113
 34
0.0
 15
70.13450035266385
 25
204.873887624109
 35
0.0
146
0.0
 13
0.0
 23
0.0
 33
0.0
 16
1.0
 26
0.0
 36
0.0
 17
0.0
 27
1.0
 37
0.0
 76
     0
330
1F
331
29
  0
MATERIAL
  5
3D
102
{ACAD_REACTORS
330
3B
102
}
102
{ACAD_XDICTIONARY
360
31A
102
}
330
3B
100
AcDbMaterial
  1
ByBlock
  0
MATERIAL
  5
3C
102
{ACAD_REACTORS
330
3B
102
}
102
{ACAD_XDICTIONARY
360
318
102
}
330
3B
100
AcDbMaterial
  1
ByLayer
  0
MATERIAL
  5
3E
102
{ACAD_REACTORS
330
3B
102
}
102
{ACAD_XDICTIONARY
360
31C
102
}
330
3B
100
AcDbMaterial
  1
Global
  0
MLINESTYLE
  5
18
102
{ACAD_REACTORS
330
17
102
}
330
17
100
AcDbMlineStyle
  2
Standard
 70
     0
  3

 62
   256
 51
90.0
 52
90.0
 71
     2
 49
0.5
 62
   256
  6
BYLAYER
 49
-0.5
 62
   256
  6
BYLAYER
  0
ACDBPLACEHOLDER
  5
F
102
{ACAD_REACTORS
330
E
102
}
330
E
  0
VISUALSTYLE
  5
2F
102
{ACAD_REACTORS
330
2A
102
}
102
{ACAD_XDICTIONARY
360
300
102
}
330
2A
100
AcDbVisualStyle
  2
2dWireframe
 70
     4
 71
     0
 72
     2
 73
     0
 90
        0
 40
-0.6
 41
-30.0
 62
     5
 63
     7
421
 16777215
 74
     1
 91
        4
 64
     7
 65
   257
 75
     1
175
     1
 42
1.0
 92
        0
 66
   257
 43
1.0
 76
     1
 77
     6
 78
     2
 67
     7
 79
     5
170
     0
171
     0
290
     0
174
     0
 93
        1
 44
0.0
173
     0
291
     0
 45
0.0
1001
ACAD
1000
AcDbSavedByObjectVersion
1070
     0
  0
VISUALSTYLE
  5
31
102
{ACAD_REACTORS
330
2A
102
}
102
{ACAD_XDICTIONARY
360
304
102
}
330
2A
100
AcDbVisualStyle
  2
3D Hidden
 70
     6
 71
     1
 72
     2
 73
     2
 90
        0
 40
-0.6
 41
-30.0
 62
     5
 63
     7
421
 16777215
 74
     2
 91
        2
 64
     7
 65
   257
 75
     2
175
     1
 42
40.0
 92
        0
 66
   257
 43
1.0
 76
     1
 77
     6
 78
     2
 67
     7
 79
     3
170
     0
171
     0
290
     0
174
     0
 93
        1
 44
0.0
173
     0
291
     0
 45
0.0
1001
ACAD
1000
AcDbSavedByObjectVersion
1070
     0
  0
VISUALSTYLE
  5
30
102
{ACAD_REACTORS
330
2A
102
}
102
{ACAD_XDICTIONARY
360
302
102
}
330
2A
100
AcDbVisualStyle
  2
3dWireframe
 70
     5
 71
     0
 72
     2
 73
     0
 90
        0
 40
-0.6
 41
-30.0
 62
     5
 63
     7
421
 16777215
 74
     1
 91
        4
 64
     7
 65
   257
 75
     1
175
     1
 42
1.0
 92
        0
 66
   257
 43
1.0
 76
     1
 77
     6
 78
     2
 67
     7
 79
     5
170
     0
171
     0
290
     0
174
     0
 93
        1
 44
0.0
173
     0
291
     0
 45
0.0
1001
ACAD
1000
AcDbSavedByObjectVersion
1070
     0
  0
VISUALSTYLE
  5
32
102
{ACAD_REACTORS
330
2A
102
}
102
{ACAD_XDICTIONARY
360
306
102
}
330
2A
100
AcDbVisualStyle
  2
Basic
 70
     7
 71
     1
 72
     0
 73
     1
 90
        0
 40
-0.6
 41
-30.0
 62
     5
 63
     7
421
 16777215
 74
     0
 91
        4
 64
     7
 65
   257
 75
     1
175
     1
 42
1.0
 92
        8
 66
     7
 43
1.0
 76
     1
 77
     6
 78
     2
 67
     7
 79
     5
170
     0
171
     0
290
     0
174
     0
 93
        1
 44
0.0
173
     0
291
     1
 45
0.0
1001
ACAD
1000
AcDbSavedByObjectVersion
1070
     0
  0
VISUALSTYLE
  5
36
102
{ACAD_REACTORS
330
2A
102
}
102
{ACAD_XDICTIONARY
360
30E
102
}
330
2A
100
AcDbVisualStyle
  2
Brighten
 70
    12
 71
     2
 72
     2
 73
     0
 90
        0
 40
-0.6
 41
-30.0
 62
     5
 63
     7
421
 16777215
 74
     1
 91
        4
 64
     7
 65
   257
 75
     1
175
     1
 42
1.0
 92
        8
 66
     7
 43
1.0
 76
     1
 77
     6
 78
     2
 67
     7
 79
     5
170
     0
171
     0
290
     0
174
     0
 93
        1
 44
50.0
173
     0
291
     1
 45
0.0
1001
ACAD
1000
AcDbSavedByObjectVersion
1070
     0
  0
VISUALSTYLE
  5
3A
102
{ACAD_REACTORS
330
2A
102
}
102
{ACAD_XDICTIONARY
360
316
102
}
330
2A
100
AcDbVisualStyle
  2
ColorChange
 70
    16
 71
     2
 72
     2
 73
     3
 90
        0
 40
-0.6
 41
-30.0
 62
     5
 63
     8
421
  8421504
 74
     1
 91
        4
 64
     7
 65
   257
 75
     1
175
     1
 42
1.0
 92
        8
 66
     8
424
  8421504
 43
1.0
 76
     1
 77
     6
 78
     2
 67
     7
 79
     5
170
     0
171
     0
290
     0
174
     0
 93
        1
 44
0.0
173
     0
291
     1
 45
0.0
1001
ACAD
1000
AcDbSavedByObjectVersion
1070
     0
  0
VISUALSTYLE
  5
34
102
{ACAD_REACTORS
330
2A
102
}
102
{ACAD_XDICTIONARY
360
30A
102
}
330
2A
100
AcDbVisualStyle
  2
Conceptual
 70
     9
 71
     3
 72
     2
 73
     0
 90
        0
 40
-0.6
 41
-30.0
 62
     5
 63
     7
421
 16777215
 74
     2
 91
        2
 64
     7
 65
   257
 75
     1
175
     1
 42
40.0
 92
        8
 66
     7
 43
1.0
 76
     1
 77
     6
 78
     2
 67
     7
 79
     3
170
     0
171
     0
290
     0
174
     0
 93
        1
 44
0.0
173
     0
291
     0
 45
0.0
1001
ACAD
1000
AcDbSavedByObjectVersion
1070
     0
  0
VISUALSTYLE
  5
35
102
{ACAD_REACTORS
330
2A
102
}
102
{ACAD_XDICTIONARY
360
30C
102
}
330
2A
100
AcDbVisualStyle
  2
Dim
 70
    11
 71
     2
 72
     2
 73
     0
 90
        0
 40
-0.6
 41
-30.0
 62
     5
 63
     7
421
 16777215
 74
     1
 91
        4
 64
     7
 65
   257
 75
     1
175
     1
 42
1.0
 92
        8
 66
     7
 43
1.0
 76
     1
 77
     6
 78
     2
 67
     7
 79
     5
170
     0
171
     0
290
     0
174
     0
 93
        1
 44
-50.0
173
     0
291
     1
 45
0.0
1001
ACAD
1000
AcDbSavedByObjectVersion
1070
     0
  0
VISUALSTYLE
  5
39
102
{ACAD_REACTORS
330
2A
102
}
102
{ACAD_XDICTIONARY
360
314
102
}
330
2A
100
AcDbVisualStyle
  2
Facepattern
 70
    15
 71
     2
 72
     2
 73
     0
 90
        0
 40
-0.6
 41
-30.0
 62
     5
 63
     7
421
 16777215
 74
     1
 91
        4
 64
     7
 65
   257
 75
     1
175
     1
 42
1.0
 92
        8
 66
     7
 43
1.0
 76
     1
 77
     6
 78
     2
 67
     7
 79
     5
170
     0
171
     0
290
     0
174
     0
 93
        1
 44
0.0
173
     0
291
     1
 45
0.0
1001
ACAD
1000
AcDbSavedByObjectVersion
1070
     0
  0
VISUALSTYLE
  5
2B
102
{ACAD_REACTORS
330
2A
102
}
102
{ACAD_XDICTIONARY
360
2F8
102
}
330
2A
100
AcDbVisualStyle
  2
Flat
 70
     0
 71
     2
 72
     1
 73
     1
 90
        2
 40
-0.6
 41
30.0
 62
     5
 63
     7
421
 16777215
 74
     0
 91
        4
 64
     7
 65
   257
 75
     1
175
     1
 42
1.0
 92
        8
 66
     7
 43
1.0
 76
     1
 77
     6
 78
     2
 67
     7
 79
     5
170
     0
171
     0
290
     0
174
     0
 93
       13
 44
0.0
173
     0
291
     1
 45
0.0
1001
ACAD
1000
AcDbSavedByObjectVersion
1070
     0
  0
VISUALSTYLE
  5
2C
102
{ACAD_REACTORS
330
2A
102
}
102
{ACAD_XDICTIONARY
360
2FA
102
}
330
2A
100
AcDbVisualStyle
  2
FlatWithEdges
 70
     1
 71
     2
 72
     1
 73
     1
 90
        2
 40
-0.6
 41
30.0
 62
     5
 63
     7
421
 16777215
 74
     1
 91
        4
 64
     7
 65
   257
 75
     1
175
     1
 42
1.0
 92
        0
 66
   257
 43
1.0
 76
     1
 77
     6
 78
     2
 67
     7
 79
     5
170
     0
171
     0
290
     0
174
     0
 93
       13
 44
0.0
173
     0
291
     1
 45
0.0
1001
ACAD
1000
AcDbSavedByObjectVersion
1070
     0
  0
VISUALSTYLE
  5
2D
102
{ACAD_REACTORS
330
2A
102
}
102
{ACAD_XDICTIONARY
360
2FC
102
}
330
2A
100
AcDbVisualStyle
  2
Gouraud
 70
     2
 71
     2
 72
     2
 73
     1
 90
        2
 40
-0.6
 41
30.0
 62
     5
 63
     7
421
 16777215
 74
     0
 91
        4
 64
     7
 65
   257
 75
     1
175
     1
 42
1.0
 92
        0
 66
     7
 43
1.0
 76
     1
 77
     6
 78
     2
 67
     7
 79
     5
170
     0
171
     0
290
     0
174
     0
 93
       13
 44
0.0
173
     0
291
     1
 45
0.0
1001
ACAD
1000
AcDbSavedByObjectVersion
1070
     0
  0
VISUALSTYLE
  5
2E
102
{ACAD_REACTORS
330
2A
102
}
102
{ACAD_XDICTIONARY
360
2FE
102
}
330
2A
100
AcDbVisualStyle
  2
GouraudWithEdges
 70
     3
 71
     2
 72
     2
 73
     1
 90
        2
 40
-0.6
 41
30.0
 62
     5
 63
     7
421
 16777215
 74
     1
 91
        4
 64
     7
 65
   257
 75
     1
175
     1
 42
1.0
 92
        0
 66
   257
 43
1.0
 76
     1
 77
     6
 78
     2
 67
     7
 79
     5
170
     0
171
     0
290
     0
174
     0
 93
       13
 44
0.0
173
     0
291
     1
 45
0.0
1001
ACAD
1000
AcDbSavedByObjectVersion
1070
     0
  0
VISUALSTYLE
  5
38
102
{ACAD_REACTORS
330
2A
102
}
102
{ACAD_XDICTIONARY
360
312
102
}
330
2A
100
AcDbVisualStyle
  2
Linepattern
 70
    14
 71
     2
 72
     2
 73
     0
 90
        0
 40
-0.6
 41
-30.0
 62
     5
 63
     7
421
 16777215
 74
     1
 91
        4
 64
     7
 65
   257
 75
     7
175
     7
 42
1.0
 92
        8
 66
     7
 43
1.0
 76
     1
 77
     6
 78
     2
 67
     7
 79
     5
170
     0
171
     0
290
     0
174
     0
 93
        1
 44
0.0
173
     0
291
     1
 45
0.0
1001
ACAD
1000
AcDbSavedByObjectVersion
1070
     0
  0
VISUALSTYLE
  5
33
102
{ACAD_REACTORS
330
2A
102
}
102
{ACAD_XDICTIONARY
360
308
102
}
330
2A
100
AcDbVisualStyle
  2
Realistic
 70
     8
 71
     2
 72
     2
 73
     0
 90
        0
 40
-0.6
 41
-30.0
 62
     5
 63
     7
421
 16777215
 74
     1
 91
        0
 64
     7
 65
   257
 75
     1
175
     1
 42
1.0
 92
        8
 66
     8
424
  7895160
 43
1.0
 76
     1
 77
     6
 78
     2
 67
     7
 79
     5
170
     0
171
     0
290
     0
174
     0
 93
       13
 44
0.0
173
     0
291
     0
 45
0.0
1001
ACAD
1000
AcDbSavedByObjectVersion
1070
     0
  0
VISUALSTYLE
  5
37
102
{ACAD_REACTORS
330
2A
102
}
102
{ACAD_XDICTIONARY
360
310
102
}
330
2A
100
AcDbVisualStyle
  2
Thicken
 70
    13
 71
     2
 72
     2
 73
     0
 90
        0
 40
-0.6
 41
-30.0
 62
     5
 63
     7
421
 16777215
 74
     1
 91
        4
 64
     7
 65
   257
 75
     1
175
     1
 42
1.0
 92
       12
 66
     7
 43
1.0
 76
     1
 77
     6
 78
     2
 67
     7
 79
     5
170
     0
171
     0
290
     0
174
     0
 93
        1
 44
0.0
173
     0
291
     1
 45
0.0
1001
ACAD
1000
AcDbSavedByObjectVersion
1070
     0
  0
DICTIONARY
  5
31A
330
3D
100
AcDbDictionary
280
     1
281
     1
  3
ACAD_XREC_ROUNDTRIP
360
31B
  0
DICTIONARY
  5
318
330
3C
100
AcDbDictionary
280
     1
281
     1
  3
ACAD_XREC_ROUNDTRIP
360
319
  0
DICTIONARY
  5
31C
330
3E
100
AcDbDictionary
280
     1
281
     1
  3
ACAD_XREC_ROUNDTRIP
360
31D
  0
DICTIONARY
  5
300
330
2F
100
AcDbDictionary
280
     1
281
     1
  3
ACAD_XREC_ROUNDTRIP
360
301
  0
DICTIONARY
  5
304
330
31
100
AcDbDictionary
280
     1
281
     1
  3
ACAD_XREC_ROUNDTRIP
360
305
  0
DICTIONARY
  5
302
330
30
100
AcDbDictionary
280
     1
281
     1
  3
ACAD_XREC_ROUNDTRIP
360
303
  0
DICTIONARY
  5
306
330
32
100
AcDbDictionary
280
     1
281
     1
  3
ACAD_XREC_ROUNDTRIP
360
307
  0
DICTIONARY
  5
30E
330
36
100
AcDbDictionary
280
     1
281
     1
  3
ACAD_XREC_ROUNDTRIP
360
30F
  0
DICTIONARY
  5
316
330
3A
100
AcDbDictionary
280
     1
281
     1
  3
ACAD_XREC_ROUNDTRIP
360
317
  0
DICTIONARY
  5
30A
330
34
100
AcDbDictionary
280
     1
281
     1
  3
ACAD_XREC_ROUNDTRIP
360
30B
  0
DICTIONARY
  5
30C
330
35
100
AcDbDictionary
280
     1
281
     1
  3
ACAD_XREC_ROUNDTRIP
360
30D
  0
DICTIONARY
  5
314
330
39
100
AcDbDictionary
280
     1
281
     1
  3
ACAD_XREC_ROUNDTRIP
360
315
  0
DICTIONARY
  5
2F8
330
2B
100
AcDbDictionary
280
     1
281
     1
  3
ACAD_XREC_ROUNDTRIP
360
2F9
  0
DICTIONARY
  5
2FA
330
2C
100
AcDbDictionary
280
     1
281
     1
  3
ACAD_XREC_ROUNDTRIP
360
2FB
  0
DICTIONARY
  5
2FC
330
2D
100
AcDbDictionary
280
     1
281
     1
  3
ACAD_XREC_ROUNDTRIP
360
2FD
  0
DICTIONARY
  5
2FE
330
2E
100
AcDbDictionary
280
     1
281
     1
  3
ACAD_XREC_ROUNDTRIP
360
2FF
  0
DICTIONARY
  5
312
330
38
100
AcDbDictionary
280
     1
281
     1
  3
ACAD_XREC_ROUNDTRIP
360
313
  0
DICTIONARY
  5
308
330
33
100
AcDbDictionary
280
     1
281
     1
  3
ACAD_XREC_ROUNDTRIP
360
309
  0
DICTIONARY
  5
310
330
37
100
AcDbDictionary
280
     1
281
     1
  3
ACAD_XREC_ROUNDTRIP
360
311
  0
XRECORD
  5
31B
102
{ACAD_REACTORS
330
31A
102
}
330
31A
100
AcDbXrecord
280
     1
102
MATERIAL
148
0.0
149
0.0
149
0.0
 93
        0
 94
      127
282
     0
 72
     1
 77
     1
171
     1
175
     1
179
     1
273
     0
  0
XRECORD
  5
319
102
{ACAD_REACTORS
330
318
102
}
330
318
100
AcDbXrecord
280
     1
102
MATERIAL
148
0.0
149
0.0
149
0.0
 93
        0
 94
      127
282
     0
 72
     1
 77
     1
171
     1
175
     1
179
     1
273
     0
  0
XRECORD
  5
31D
102
{ACAD_REACTORS
330
31C
102
}
330
31C
100
AcDbXrecord
280
     1
102
MATERIAL
148
0.0
149
0.0
149
0.0
 93
        0
 94
      127
282
     0
 72
     1
 77
     1
171
     1
175
     1
179
     1
273
     0
  0
XRECORD
  5
301
102
{ACAD_REACTORS
330
300
102
}
330
300
100
AcDbXrecord
280
     1
102
RTVSPropertyOp0
 70
     1
102
RTVSPropertyOp1
 70
     1
102
RTVSPropertyOp2
 70
     1
102
RTVSPropertyOp3
 70
     1
102
RTVSPropertyOp4
 70
     1
102
RTVSPropertyOp5
 70
     1
102
RTVSPropertyOp6
 70
     1
102
RTVSPropertyOp7
 70
     1
102
RTVSPropertyOp8
 70
     1
102
RTVSPropertyOp9
 70
     1
102
RTVSPropertyOp10
 70
     1
102
RTVSPropertyOp11
 70
     1
102
RTVSPropertyOp12
 70
     1
102
RTVSPropertyOp13
 70
     1
102
RTVSPropertyOp14
 70
     1
102
RTVSPropertyOp15
 70
     1
102
RTVSPropertyOp16
 70
     1
102
RTVSPropertyOp17
 70
     1
102
RTVSPropertyOp18
 70
     1
102
RTVSPropertyOp19
 70
     1
102
RTVSPropertyOp20
 70
     1
102
RTVSPropertyOp21
 70
     1
102
RTVSPropertyOp22
 70
     1
102
RTVSPropertyOp23
 70
     1
102
RTVSPropertyOp24
 70
     1
102
RTVSPropertyOp25
 70
     1
102
RTVSPropertyOp26
 70
     1
102
RTVSPropertyOp27
 70
     1
102
RTVSPropertyOp28
 70
     1
102
RTVSPropertyOp29
 70
     1
102
RTVSPropertyOp30
 70
     1
102
RTVSPropertyOp31
 70
     1
102
RTVSPropertyOp32
 70
     1
  0
XRECORD
  5
305
102
{ACAD_REACTORS
330
304
102
}
330
304
100
AcDbXrecord
280
     1
102
RTVSPropertyOp0
 70
     1
102
RTVSPropertyOp1
 70
     1
102
RTVSPropertyOp2
 70
     1
102
RTVSPropertyOp3
 70
     1
102
RTVSPropertyOp4
 70
     1
102
RTVSPropertyOp5
 70
     1
102
RTVSPropertyOp6
 70
     1
102
RTVSPropertyOp7
 70
     1
102
RTVSPropertyOp8
 70
     1
102
RTVSPropertyOp9
 70
     1
102
RTVSPropertyOp10
 70
     1
102
RTVSPropertyOp11
 70
     1
102
RTVSPropertyOp12
 70
     1
102
RTVSPropertyOp13
 70
     1
102
RTVSPropertyOp14
 70
     1
102
RTVSPropertyOp15
 70
     1
102
RTVSPropertyOp16
 70
     1
102
RTVSPropertyOp17
 70
     1
102
RTVSPropertyOp18
 70
     1
102
RTVSPropertyOp19
 70
     1
102
RTVSPropertyOp20
 70
     1
102
RTVSPropertyOp21
 70
     1
102
RTVSPropertyOp22
 70
     1
102
RTVSPropertyOp23
 70
     1
102
RTVSPropertyOp24
 70
     1
102
RTVSPropertyOp25
 70
     1
102
RTVSPropertyOp26
 70
     1
102
RTVSPropertyOp27
 70
     1
102
RTVSPropertyOp28
 70
     1
102
RTVSPropertyOp29
 70
     1
102
RTVSPropertyOp30
 70
     1
102
RTVSPropertyOp31
 70
     1
102
RTVSPropertyOp32
 70
     1
  0
XRECORD
  5
303
102
{ACAD_REACTORS
330
302
102
}
330
302
100
AcDbXrecord
280
     1
102
RTVSPropertyOp0
 70
     1
102
RTVSPropertyOp1
 70
     1
102
RTVSPropertyOp2
 70
     1
102
RTVSPropertyOp3
 70
     1
102
RTVSPropertyOp4
 70
     1
102
RTVSPropertyOp5
 70
     1
102
RTVSPropertyOp6
 70
     1
102
RTVSPropertyOp7
 70
     1
102
RTVSPropertyOp8
 70
     1
102
RTVSPropertyOp9
 70
     1
102
RTVSPropertyOp10
 70
     1
102
RTVSPropertyOp11
 70
     1
102
RTVSPropertyOp12
 70
     1
102
RTVSPropertyOp13
 70
     1
102
RTVSPropertyOp14
 70
     1
102
RTVSPropertyOp15
 70
     1
102
RTVSPropertyOp16
 70
     1
102
RTVSPropertyOp17
 70
     1
102
RTVSPropertyOp18
 70
     1
102
RTVSPropertyOp19
 70
     1
102
RTVSPropertyOp20
 70
     1
102
RTVSPropertyOp21
 70
     1
102
RTVSPropertyOp22
 70
     1
102
RTVSPropertyOp23
 70
     1
102
RTVSPropertyOp24
 70
     1
102
RTVSPropertyOp25
 70
     1
102
RTVSPropertyOp26
 70
     1
102
RTVSPropertyOp27
 70
     1
102
RTVSPropertyOp28
 70
     1
102
RTVSPropertyOp29
 70
     1
102
RTVSPropertyOp30
 70
     1
102
RTVSPropertyOp31
 70
     1
102
RTVSPropertyOp32
 70
     1
  0
XRECORD
  5
307
102
{ACAD_REACTORS
330
306
102
}
330
306
100
AcDbXrecord
280
     1
102
RTVSPropertyOp0
 70
     1
102
RTVSPropertyOp1
 70
     1
102
RTVSPropertyOp2
 70
     1
102
RTVSPropertyOp3
 70
     1
102
RTVSPropertyOp4
 70
     1
102
RTVSPropertyOp5
 70
     1
102
RTVSPropertyOp6
 70
     1
102
RTVSPropertyOp7
 70
     1
102
RTVSPropertyOp8
 70
     1
102
RTVSPropertyOp9
 70
     1
102
RTVSPropertyOp10
 70
     1
102
RTVSPropertyOp11
 70
     1
102
RTVSPropertyOp12
 70
     1
102
RTVSPropertyOp13
 70
     1
102
RTVSPropertyOp14
 70
     1
102
RTVSPropertyOp15
 70
     1
102
RTVSPropertyOp16
 70
     1
102
RTVSPropertyOp17
 70
     1
102
RTVSPropertyOp18
 70
     1
102
RTVSPropertyOp19
 70
     1
102
RTVSPropertyOp20
 70
     1
102
RTVSPropertyOp21
 70
     1
102
RTVSPropertyOp22
 70
     1
102
RTVSPropertyOp23
 70
     1
102
RTVSPropertyOp24
 70
     1
102
RTVSPropertyOp25
 70
     1
102
RTVSPropertyOp26
 70
     1
102
RTVSPropertyOp27
 70
     1
102
RTVSPropertyOp28
 70
     1
102
RTVSPropertyOp29
 70
     1
102
RTVSPropertyOp30
 70
     1
102
RTVSPropertyOp31
 70
     1
102
RTVSPropertyOp32
 70
     1
  0
XRECORD
  5
30F
102
{ACAD_REACTORS
330
30E
102
}
330
30E
100
AcDbXrecord
280
     1
102
RTVSPropertyOp0
 70
     1
102
RTVSPropertyOp1
 70
     1
102
RTVSPropertyOp2
 70
     1
102
RTVSPropertyOp3
 70
     1
102
RTVSPropertyOp4
 70
     1
102
RTVSPropertyOp5
 70
     1
102
RTVSPropertyOp6
 70
     1
102
RTVSPropertyOp7
 70
     1
102
RTVSPropertyOp8
 70
     1
102
RTVSPropertyOp9
 70
     1
102
RTVSPropertyOp10
 70
     1
102
RTVSPropertyOp11
 70
     1
102
RTVSPropertyOp12
 70
     1
102
RTVSPropertyOp13
 70
     1
102
RTVSPropertyOp14
 70
     1
102
RTVSPropertyOp15
 70
     1
102
RTVSPropertyOp16
 70
     1
102
RTVSPropertyOp17
 70
     1
102
RTVSPropertyOp18
 70
     1
102
RTVSPropertyOp19
 70
     1
102
RTVSPropertyOp20
 70
     1
102
RTVSPropertyOp21
 70
     1
102
RTVSPropertyOp22
 70
     1
102
RTVSPropertyOp23
 70
     1
102
RTVSPropertyOp24
 70
     1
102
RTVSPropertyOp25
 70
     1
102
RTVSPropertyOp26
 70
     1
102
RTVSPropertyOp27
 70
     1
102
RTVSPropertyOp28
 70
     1
102
RTVSPropertyOp29
 70
     1
102
RTVSPropertyOp30
 70
     1
102
RTVSPropertyOp31
 70
     1
102
RTVSPropertyOp32
 70
     1
  0
XRECORD
  5
317
102
{ACAD_REACTORS
330
316
102
}
330
316
100
AcDbXrecord
280
     1
102
RTVSPropertyOp0
 70
     1
102
RTVSPropertyOp1
 70
     1
102
RTVSPropertyOp2
 70
     1
102
RTVSPropertyOp3
 70
     1
102
RTVSPropertyOp4
 70
     1
102
RTVSPropertyOp5
 70
     1
102
RTVSPropertyOp6
 70
     1
102
RTVSPropertyOp7
 70
     1
102
RTVSPropertyOp8
 70
     1
102
RTVSPropertyOp9
 70
     1
102
RTVSPropertyOp10
 70
     1
102
RTVSPropertyOp11
 70
     1
102
RTVSPropertyOp12
 70
     1
102
RTVSPropertyOp13
 70
     1
102
RTVSPropertyOp14
 70
     1
102
RTVSPropertyOp15
 70
     1
102
RTVSPropertyOp16
 70
     1
102
RTVSPropertyOp17
 70
     1
102
RTVSPropertyOp18
 70
     1
102
RTVSPropertyOp19
 70
     1
102
RTVSPropertyOp20
 70
     1
102
RTVSPropertyOp21
 70
     1
102
RTVSPropertyOp22
 70
     1
102
RTVSPropertyOp23
 70
     1
102
RTVSPropertyOp24
 70
     1
102
RTVSPropertyOp25
 70
     1
102
RTVSPropertyOp26
 70
     1
102
RTVSPropertyOp27
 70
     1
102
RTVSPropertyOp28
 70
     1
102
RTVSPropertyOp29
 70
     1
102
RTVSPropertyOp30
 70
     1
102
RTVSPropertyOp31
 70
     1
102
RTVSPropertyOp32
 70
     1
  0
XRECORD
  5
30B
102
{ACAD_REACTORS
330
30A
102
}
330
30A
100
AcDbXrecord
280
     1
102
RTVSPropertyOp0
 70
     1
102
RTVSPropertyOp1
 70
     1
102
RTVSPropertyOp2
 70
     1
102
RTVSPropertyOp3
 70
     1
102
RTVSPropertyOp4
 70
     1
102
RTVSPropertyOp5
 70
     1
102
RTVSPropertyOp6
 70
     1
102
RTVSPropertyOp7
 70
     1
102
RTVSPropertyOp8
 70
     1
102
RTVSPropertyOp9
 70
     1
102
RTVSPropertyOp10
 70
     1
102
RTVSPropertyOp11
 70
     1
102
RTVSPropertyOp12
 70
     1
102
RTVSPropertyOp13
 70
     1
102
RTVSPropertyOp14
 70
     1
102
RTVSPropertyOp15
 70
     1
102
RTVSPropertyOp16
 70
     1
102
RTVSPropertyOp17
 70
     1
102
RTVSPropertyOp18
 70
     1
102
RTVSPropertyOp19
 70
     1
102
RTVSPropertyOp20
 70
     1
102
RTVSPropertyOp21
 70
     1
102
RTVSPropertyOp22
 70
     1
102
RTVSPropertyOp23
 70
     1
102
RTVSPropertyOp24
 70
     1
102
RTVSPropertyOp25
 70
     1
102
RTVSPropertyOp26
 70
     1
102
RTVSPropertyOp27
 70
     1
102
RTVSPropertyOp28
 70
     1
102
RTVSPropertyOp29
 70
     1
102
RTVSPropertyOp30
 70
     1
102
RTVSPropertyOp31
 70
     1
102
RTVSPropertyOp32
 70
     1
  0
XRECORD
  5
30D
102
{ACAD_REACTORS
330
30C
102
}
330
30C
100
AcDbXrecord
280
     1
102
RTVSPropertyOp0
 70
     1
102
RTVSPropertyOp1
 70
     1
102
RTVSPropertyOp2
 70
     1
102
RTVSPropertyOp3
 70
     1
102
RTVSPropertyOp4
 70
     1
102
RTVSPropertyOp5
 70
     1
102
RTVSPropertyOp6
 70
     1
102
RTVSPropertyOp7
 70
     1
102
RTVSPropertyOp8
 70
     1
102
RTVSPropertyOp9
 70
     1
102
RTVSPropertyOp10
 70
     1
102
RTVSPropertyOp11
 70
     1
102
RTVSPropertyOp12
 70
     1
102
RTVSPropertyOp13
 70
     1
102
RTVSPropertyOp14
 70
     1
102
RTVSPropertyOp15
 70
     1
102
RTVSPropertyOp16
 70
     1
102
RTVSPropertyOp17
 70
     1
102
RTVSPropertyOp18
 70
     1
102
RTVSPropertyOp19
 70
     1
102
RTVSPropertyOp20
 70
     1
102
RTVSPropertyOp21
 70
     1
102
RTVSPropertyOp22
 70
     1
102
RTVSPropertyOp23
 70
     1
102
RTVSPropertyOp24
 70
     1
102
RTVSPropertyOp25
 70
     1
102
RTVSPropertyOp26
 70
     1
102
RTVSPropertyOp27
 70
     1
102
RTVSPropertyOp28
 70
     1
102
RTVSPropertyOp29
 70
     1
102
RTVSPropertyOp30
 70
     1
102
RTVSPropertyOp31
 70
     1
102
RTVSPropertyOp32
 70
     1
  0
XRECORD
  5
315
102
{ACAD_REACTORS
330
314
102
}
330
314
100
AcDbXrecord
280
     1
102
RTVSPropertyOp0
 70
     1
102
RTVSPropertyOp1
 70
     1
102
RTVSPropertyOp2
 70
     1
102
RTVSPropertyOp3
 70
     1
102
RTVSPropertyOp4
 70
     1
102
RTVSPropertyOp5
 70
     1
102
RTVSPropertyOp6
 70
     1
102
RTVSPropertyOp7
 70
     1
102
RTVSPropertyOp8
 70
     1
102
RTVSPropertyOp9
 70
     1
102
RTVSPropertyOp10
 70
     1
102
RTVSPropertyOp11
 70
     1
102
RTVSPropertyOp12
 70
     1
102
RTVSPropertyOp13
 70
     1
102
RTVSPropertyOp14
 70
     1
102
RTVSPropertyOp15
 70
     1
102
RTVSPropertyOp16
 70
     1
102
RTVSPropertyOp17
 70
     1
102
RTVSPropertyOp18
 70
     1
102
RTVSPropertyOp19
 70
     1
102
RTVSPropertyOp20
 70
     1
102
RTVSPropertyOp21
 70
     1
102
RTVSPropertyOp22
 70
     1
102
RTVSPropertyOp23
 70
     1
102
RTVSPropertyOp24
 70
     1
102
RTVSPropertyOp25
 70
     1
102
RTVSPropertyOp26
 70
     1
102
RTVSPropertyOp27
 70
     1
102
RTVSPropertyOp28
 70
     1
102
RTVSPropertyOp29
 70
     1
102
RTVSPropertyOp30
 70
     1
102
RTVSPropertyOp31
 70
     1
102
RTVSPropertyOp32
 70
     1
  0
XRECORD
  5
2F9
102
{ACAD_REACTORS
330
2F8
102
}
330
2F8
100
AcDbXrecord
280
     1
102
RTVSPropertyOp0
 70
     1
102
RTVSPropertyOp1
 70
     1
102
RTVSPropertyOp2
 70
     1
102
RTVSPropertyOp3
 70
     1
102
RTVSPropertyOp4
 70
     1
102
RTVSPropertyOp5
 70
     1
102
RTVSPropertyOp6
 70
     1
102
RTVSPropertyOp7
 70
     1
102
RTVSPropertyOp8
 70
     1
102
RTVSPropertyOp9
 70
     1
102
RTVSPropertyOp10
 70
     1
102
RTVSPropertyOp11
 70
     1
102
RTVSPropertyOp12
 70
     1
102
RTVSPropertyOp13
 70
     1
102
RTVSPropertyOp14
 70
     1
102
RTVSPropertyOp15
 70
     1
102
RTVSPropertyOp16
 70
     1
102
RTVSPropertyOp17
 70
     1
102
RTVSPropertyOp18
 70
     1
102
RTVSPropertyOp19
 70
     1
102
RTVSPropertyOp20
 70
     1
102
RTVSPropertyOp21
 70
     1
102
RTVSPropertyOp22
 70
     1
102
RTVSPropertyOp23
 70
     1
102
RTVSPropertyOp24
 70
     1
102
RTVSPropertyOp25
 70
     1
102
RTVSPropertyOp26
 70
     1
102
RTVSPropertyOp27
 70
     1
102
RTVSPropertyOp28
 70
     1
102
RTVSPropertyOp29
 70
     1
102
RTVSPropertyOp30
 70
     1
102
RTVSPropertyOp31
 70
     1
102
RTVSPropertyOp32
 70
     1
  0
XRECORD
  5
2FB
102
{ACAD_REACTORS
330
2FA
102
}
330
2FA
100
AcDbXrecord
280
     1
102
RTVSPropertyOp0
 70
     1
102
RTVSPropertyOp1
 70
     1
102
RTVSPropertyOp2
 70
     1
102
RTVSPropertyOp3
 70
     1
102
RTVSPropertyOp4
 70
     1
102
RTVSPropertyOp5
 70
     1
102
RTVSPropertyOp6
 70
     1
102
RTVSPropertyOp7
 70
     1
102
RTVSPropertyOp8
 70
     1
102
RTVSPropertyOp9
 70
     1
102
RTVSPropertyOp10
 70
     1
102
RTVSPropertyOp11
 70
     1
102
RTVSPropertyOp12
 70
     1
102
RTVSPropertyOp13
 70
     1
102
RTVSPropertyOp14
 70
     1
102
RTVSPropertyOp15
 70
     1
102
RTVSPropertyOp16
 70
     1
102
RTVSPropertyOp17
 70
     1
102
RTVSPropertyOp18
 70
     1
102
RTVSPropertyOp19
 70
     1
102
RTVSPropertyOp20
 70
     1
102
RTVSPropertyOp21
 70
     1
102
RTVSPropertyOp22
 70
     1
102
RTVSPropertyOp23
 70
     1
102
RTVSPropertyOp24
 70
     1
102
RTVSPropertyOp25
 70
     1
102
RTVSPropertyOp26
 70
     1
102
RTVSPropertyOp27
 70
     1
102
RTVSPropertyOp28
 70
     1
102
RTVSPropertyOp29
 70
     1
102
RTVSPropertyOp30
 70
     1
102
RTVSPropertyOp31
 70
     1
102
RTVSPropertyOp32
 70
     1
  0
XRECORD
  5
2FD
102
{ACAD_REACTORS
330
2FC
102
}
330
2FC
100
AcDbXrecord
280
     1
102
RTVSPropertyOp0
 70
     1
102
RTVSPropertyOp1
 70
     1
102
RTVSPropertyOp2
 70
     1
102
RTVSPropertyOp3
 70
     1
102
RTVSPropertyOp4
 70
     1
102
RTVSPropertyOp5
 70
     1
102
RTVSPropertyOp6
 70
     1
102
RTVSPropertyOp7
 70
     1
102
RTVSPropertyOp8
 70
     1
102
RTVSPropertyOp9
 70
     1
102
RTVSPropertyOp10
 70
     1
102
RTVSPropertyOp11
 70
     1
102
RTVSPropertyOp12
 70
     1
102
RTVSPropertyOp13
 70
     1
102
RTVSPropertyOp14
 70
     1
102
RTVSPropertyOp15
 70
     1
102
RTVSPropertyOp16
 70
     1
102
RTVSPropertyOp17
 70
     1
102
RTVSPropertyOp18
 70
     1
102
RTVSPropertyOp19
 70
     1
102
RTVSPropertyOp20
 70
     1
102
RTVSPropertyOp21
 70
     1
102
RTVSPropertyOp22
 70
     1
102
RTVSPropertyOp23
 70
     1
102
RTVSPropertyOp24
 70
     1
102
RTVSPropertyOp25
 70
     1
102
RTVSPropertyOp26
 70
     1
102
RTVSPropertyOp27
 70
     1
102
RTVSPropertyOp28
 70
     1
102
RTVSPropertyOp29
 70
     1
102
RTVSPropertyOp30
 70
     1
102
RTVSPropertyOp31
 70
     1
102
RTVSPropertyOp32
 70
     1
  0
XRECORD
  5
2FF
102
{ACAD_REACTORS
330
2FE
102
}
330
2FE
100
AcDbXrecord
280
     1
102
RTVSPropertyOp0
 70
     1
102
RTVSPropertyOp1
 70
     1
102
RTVSPropertyOp2
 70
     1
102
RTVSPropertyOp3
 70
     1
102
RTVSPropertyOp4
 70
     1
102
RTVSPropertyOp5
 70
     1
102
RTVSPropertyOp6
 70
     1
102
RTVSPropertyOp7
 70
     1
102
RTVSPropertyOp8
 70
     1
102
RTVSPropertyOp9
 70
     1
102
RTVSPropertyOp10
 70
     1
102
RTVSPropertyOp11
 70
     1
102
RTVSPropertyOp12
 70
     1
102
RTVSPropertyOp13
 70
     1
102
RTVSPropertyOp14
 70
     1
102
RTVSPropertyOp15
 70
     1
102
RTVSPropertyOp16
 70
     1
102
RTVSPropertyOp17
 70
     1
102
RTVSPropertyOp18
 70
     1
102
RTVSPropertyOp19
 70
     1
102
RTVSPropertyOp20
 70
     1
102
RTVSPropertyOp21
 70
     1
102
RTVSPropertyOp22
 70
     1
102
RTVSPropertyOp23
 70
     1
102
RTVSPropertyOp24
 70
     1
102
RTVSPropertyOp25
 70
     1
102
RTVSPropertyOp26
 70
     1
102
RTVSPropertyOp27
 70
     1
102
RTVSPropertyOp28
 70
     1
102
RTVSPropertyOp29
 70
     1
102
RTVSPropertyOp30
 70
     1
102
RTVSPropertyOp31
 70
     1
102
RTVSPropertyOp32
 70
     1
  0
XRECORD
  5
313
102
{ACAD_REACTORS
330
312
102
}
330
312
100
AcDbXrecord
280
     1
102
RTVSPropertyOp0
 70
     1
102
RTVSPropertyOp1
 70
     1
102
RTVSPropertyOp2
 70
     1
102
RTVSPropertyOp3
 70
     1
102
RTVSPropertyOp4
 70
     1
102
RTVSPropertyOp5
 70
     1
102
RTVSPropertyOp6
 70
     1
102
RTVSPropertyOp7
 70
     1
102
RTVSPropertyOp8
 70
     1
102
RTVSPropertyOp9
 70
     1
102
RTVSPropertyOp10
 70
     1
102
RTVSPropertyOp11
 70
     1
102
RTVSPropertyOp12
 70
     1
102
RTVSPropertyOp13
 70
     1
102
RTVSPropertyOp14
 70
     1
102
RTVSPropertyOp15
 70
     1
102
RTVSPropertyOp16
 70
     1
102
RTVSPropertyOp17
 70
     1
102
RTVSPropertyOp18
 70
     1
102
RTVSPropertyOp19
 70
     1
102
RTVSPropertyOp20
 70
     1
102
RTVSPropertyOp21
 70
     1
102
RTVSPropertyOp22
 70
     1
102
RTVSPropertyOp23
 70
     1
102
RTVSPropertyOp24
 70
     1
102
RTVSPropertyOp25
 70
     1
102
RTVSPropertyOp26
 70
     1
102
RTVSPropertyOp27
 70
     1
102
RTVSPropertyOp28
 70
     1
102
RTVSPropertyOp29
 70
     1
102
RTVSPropertyOp30
 70
     1
102
RTVSPropertyOp31
 70
     1
102
RTVSPropertyOp32
 70
     1
  0
XRECORD
  5
309
102
{ACAD_REACTORS
330
308
102
}
330
308
100
AcDbXrecord
280
     1
102
RTVSPropertyOp0
 70
     1
102
RTVSPropertyOp1
 70
     1
102
RTVSPropertyOp2
 70
     1
102
RTVSPropertyOp3
 70
     1
102
RTVSPropertyOp4
 70
     1
102
RTVSPropertyOp5
 70
     1
102
RTVSPropertyOp6
 70
     1
102
RTVSPropertyOp7
 70
     1
102
RTVSPropertyOp8
 70
     1
102
RTVSPropertyOp9
 70
     1
102
RTVSPropertyOp10
 70
     1
102
RTVSPropertyOp11
 70
     1
102
RTVSPropertyOp12
 70
     1
102
RTVSPropertyOp13
 70
     1
102
RTVSPropertyOp14
 70
     1
102
RTVSPropertyOp15
 70
     1
102
RTVSPropertyOp16
 70
     1
102
RTVSPropertyOp17
 70
     1
102
RTVSPropertyOp18
 70
     1
102
RTVSPropertyOp19
 70
     1
102
RTVSPropertyOp20
 70
     1
102
RTVSPropertyOp21
 70
     1
102
RTVSPropertyOp22
 70
     1
102
RTVSPropertyOp23
 70
     1
102
RTVSPropertyOp24
 70
     1
102
RTVSPropertyOp25
 70
     1
102
RTVSPropertyOp26
 70
     1
102
RTVSPropertyOp27
 70
     1
102
RTVSPropertyOp28
 70
     1
102
RTVSPropertyOp29
 70
     1
102
RTVSPropertyOp30
 70
     1
102
RTVSPropertyOp31
 70
     1
102
RTVSPropertyOp32
 70
     1
  0
XRECORD
  5
311
102
{ACAD_REACTORS
330
310
102
}
330
310
100
AcDbXrecord
280
     1
102
RTVSPropertyOp0
 70
     1
102
RTVSPropertyOp1
 70
     1
102
RTVSPropertyOp2
 70
     1
102
RTVSPropertyOp3
 70
     1
102
RTVSPropertyOp4
 70
     1
102
RTVSPropertyOp5
 70
     1
102
RTVSPropertyOp6
 70
     1
102
RTVSPropertyOp7
 70
     1
102
RTVSPropertyOp8
 70
     1
102
RTVSPropertyOp9
 70
     1
102
RTVSPropertyOp10
 70
     1
102
RTVSPropertyOp11
 70
     1
102
RTVSPropertyOp12
 70
     1
102
RTVSPropertyOp13
 70
     1
102
RTVSPropertyOp14
 70
     1
102
RTVSPropertyOp15
 70
     1
102
RTVSPropertyOp16
 70
     1
102
RTVSPropertyOp17
 70
     1
102
RTVSPropertyOp18
 70
     1
102
RTVSPropertyOp19
 70
     1
102
RTVSPropertyOp20
 70
     1
102
RTVSPropertyOp21
 70
     1
102
RTVSPropertyOp22
 70
     1
102
RTVSPropertyOp23
 70
     1
102
RTVSPropertyOp24
 70
     1
102
RTVSPropertyOp25
 70
     1
102
RTVSPropertyOp26
 70
     1
102
RTVSPropertyOp27
 70
     1
102
RTVSPropertyOp28
 70
     1
102
RTVSPropertyOp29
 70
     1
102
RTVSPropertyOp30
 70
     1
102
RTVSPropertyOp31
 70
     1
102
RTVSPropertyOp32
 70
     1
  0
ENDSEC
  0
EOF
